<?xml version="1.0" standalone="no"?>
<!DOCTYPE svg PUBLIC "-//W3C//DTD SVG 1.1//EN" "http://www.w3.org/Graphics/SVG/1.1/DTD/svg11.dtd" >
<svg xmlns="http://www.w3.org/2000/svg" xmlns:xlink="http://www.w3.org/1999/xlink" version="1.1">
<metadata>
Created by FontForge 20170924 at Thu Oct  3 23:29:08 2019
 By www-data
Converted by ALLTYPE
</metadata>
<defs>
<font id="Zinco-BlackCondensedHQ" horiz-adv-x="296" >
  <font-face 
    font-family="Zinco-BlackCondensed HQ"
    font-weight="500"
    font-stretch="normal"
    units-per-em="1000"
    panose-1="0 0 0 0 0 0 0 0 0 0"
    ascent="800"
    descent="-200"
    x-height="488"
    cap-height="712"
    bbox="-6 -248 1037 942"
    underline-thickness="50"
    underline-position="-105"
    unicode-range="U+0020-F002"
  />
<missing-glyph 
 />
    <glyph glyph-name=".notdef" 
 />
    <glyph glyph-name="NULL" horiz-adv-x="0" 
 />
    <glyph glyph-name="nonmarkingreturn" 
 />
    <glyph glyph-name="space" unicode=" " 
 />
    <glyph glyph-name="space" unicode="&#xa0;" 
 />
    <glyph glyph-name="exclam" unicode="!" horiz-adv-x="253" 
d="M31 83q0 38 28 66t67 28t67 -28t28 -67t-28 -66.5t-67 -27.5t-67 27.5t-28 66.5v1zM221 712l-20 -487h-150l-20 487h190z" />
    <glyph glyph-name="quotedbl" unicode="&#x22;" horiz-adv-x="375" 
d="M36 470v242h120v-242h-120zM218 470v242h120v-242h-120z" />
    <glyph glyph-name="numbersign" unicode="#" horiz-adv-x="532" 
d="M72 0l27 200h-80v96h93l17 120h-80v96h93l27 200h100l-27 -200h91l27 200h100l-27 -200h80v-96h-93l-17 -120h80v-96h-93l-27 -200h-100l27 200h-90l-28 -200h-100zM303 296l17 120h-91l-16 -120h90z" />
    <glyph glyph-name="dollar" unicode="$" horiz-adv-x="489" 
d="M190 -106v94q-52 1 -90 11t-65 26v205q6 -6 13.5 -11.5t16.5 -10.5q20 -14 45.5 -25.5t51.5 -14.5q4 0 8 -0.5t8 -0.5q41 0 61.5 12.5t20.5 38.5q0 20 -15.5 32.5t-38.5 23.5q-15 7 -32 14.5t-34 16.5q-45 23 -82.5 67t-37.5 134q0 10 1 19.5t2 19.5q10 54 49 102t118 67
v105h114v-95q39 -4 74 -13t52 -20q1 0 2.5 -1t2.5 -2v-193q-18 13 -36.5 23t-37.5 16q-13 5 -25.5 7t-24.5 2q-32 0 -56.5 -13t-24.5 -39q0 -22 17.5 -35t43.5 -23q14 -6 29 -12t30 -13q45 -21 82.5 -62t37.5 -129q0 -11 -1 -22t-3 -22q-10 -55 -48 -103.5t-114 -69.5v-106
h-114z" />
    <glyph glyph-name="percent" unicode="%" horiz-adv-x="777" 
d="M601 -12q-71 0 -113 57t-42 156q0 95 32.5 142t72.5 62q13 5 25.5 7.5t24.5 2.5t24.5 -2.5t25.5 -7.5q40 -15 72.5 -62t32.5 -142q0 -99 -42 -156t-113 -57zM601 102q26 -1 33.5 28t7.5 71t-7.5 71t-33.5 29q-25 0 -33 -29t-8 -71t8 -71t33 -29v1zM219 0l234 712h103
l-234 -712h-103zM176 296q-71 -1 -113 56.5t-42 156.5q0 95 32.5 142t72.5 62q13 5 25.5 7.5t24.5 2.5t24.5 -2.5t25.5 -7.5q40 -15 72.5 -62t32.5 -142q0 -99 -42 -156.5t-113 -57.5v1zM176 610q-25 -1 -33 -30t-8 -71t8 -71t33 -29q26 0 33.5 29t7.5 71t-7.5 71t-33.5 29
v1z" />
    <glyph glyph-name="ampersand" unicode="&#x26;" horiz-adv-x="657" 
d="M637 0h-185q-2 3 -4 7.5t-5 9.5q-2 5 -4.5 9.5t-5.5 8.5q-32 -22 -78.5 -34.5t-103.5 -12.5q-111 0 -163 52.5t-62 115.5q-1 8 -1.5 16.5t-0.5 16.5q0 67 37 119t94 87q-25 26 -43 63t-18 79q0 85 54 135.5t152 50.5q112 0 166 -52.5t54 -117.5q0 -58 -30.5 -103.5
t-81.5 -74.5l68 -74l42 40l100 -119q-1 -3 -2.5 -5.5t-2.5 -4.5q-8 -11 -15.5 -20t-17.5 -17l-4 -4t-5 -4q38 -65 51.5 -112t14.5 -55zM214 219q0 -5 1 -10l2 -10q6 -17 20.5 -31t36.5 -15q15 1 26.5 4t23.5 10q5 3 10 7t10 9q-5 9 -11.5 18t-13.5 19q-4 4 -7.5 9t-7.5 10
q-11 13 -21.5 25.5t-18.5 20.5q-23 -16 -34 -29t-15 -26q0 -3 -0.5 -6t-0.5 -6v1zM268 550q0 -5 0.5 -8.5t0.5 -7.5q3 -10 10.5 -20t25.5 -25q20 13 30.5 27t10.5 31q0 21 -10.5 32.5t-28.5 11.5q-16 0 -27.5 -10.5t-11.5 -31.5v1z" />
    <glyph glyph-name="quotesingle" unicode="'" horiz-adv-x="194" 
d="M36 470v242h120v-242h-120z" />
    <glyph glyph-name="parenleft" unicode="(" horiz-adv-x="316" 
d="M235 815l60 -49q-94 -101 -121 -211t-27 -241t27 -240.5t121 -209.5l-60 -49q-101 94 -161.5 219.5t-60.5 279.5t60.5 280t161.5 220v1z" />
    <glyph glyph-name="parenright" unicode=")" horiz-adv-x="316" 
d="M81 -185l-60 49q95 100 121.5 209.5t26.5 240.5t-26.5 241t-121.5 210l60 50q101 -95 161.5 -221t60.5 -280t-60.5 -279.5t-161.5 -219.5z" />
    <glyph glyph-name="asterisk" unicode="*" horiz-adv-x="423" 
d="M130 496l-113 32l34 105l110 -41l-5 120h113l-5 -120l109 41l34 -105l-113 -33l73 -93l-89 -65l-66 98l-66 -98l-90 65l73 93z" />
    <glyph glyph-name="plus" unicode="+" horiz-adv-x="522" 
d="M201 313v193h120v-193h193v-120h-193v-193h-120v193h-193v120h193z" />
    <glyph glyph-name="comma" unicode="," horiz-adv-x="256" 
d="M23 -87l53 242h167l-101 -242h-119z" />
    <glyph glyph-name="hyphen" unicode="-" horiz-adv-x="365" 
d="M36 211v144h292v-144h-292z" />
    <glyph glyph-name="period" unicode="." horiz-adv-x="240" 
d="M25 95q0 38 28 66t67 28t67 -28t28 -67t-28 -66.5t-67 -27.5t-67 27.5t-28 66.5v1z" />
    <glyph glyph-name="slash" unicode="/" horiz-adv-x="379" 
d="M7 -12l239 736h126l-239 -736h-126z" />
    <glyph glyph-name="zero" unicode="0" horiz-adv-x="584" 
d="M558 358q0 -185 -78 -277.5t-188 -92.5t-188 92.5t-78 276.5q0 172 65 255t142 104q15 3 30 5t29 2t29 -2t30 -5q77 -21 142 -104t65 -255v1zM216 355v-26t1 -26q3 -51 17.5 -93.5t57.5 -42.5t57.5 42.5t17.5 93.5q1 13 1 26v25v6.5v6.5q-1 63 -16 114.5t-60 51.5
q-49 0 -62 -51.5t-14 -114.5v-6.5v-6.5v1z" />
    <glyph glyph-name="one" unicode="1" horiz-adv-x="300" 
d="M78 0v533h-60v138h29q32 -1 59.5 10t46.5 30l110 1v-712h-185z" />
    <glyph glyph-name="two" unicode="2" horiz-adv-x="462" 
d="M33 0v132q8 8 16.5 18t17.5 20q27 31 52.5 66t46.5 70q23 40 37.5 78.5t14.5 72.5q0 38 -19.5 65t-57.5 27q-29 0 -55 -14.5t-44 -31.5v181q38 14 79 26.5t95 12.5q107 0 155.5 -67t48.5 -148q0 -94 -43 -170t-95 -142q-3 -4 -6.5 -8.5t-6.5 -8.5l164 1v-180h-400z" />
    <glyph glyph-name="three" unicode="3" horiz-adv-x="449" 
d="M32 28v171q2 -3 4.5 -4.5t5.5 -3.5q16 -11 39.5 -20.5t54.5 -9.5q37 0 64.5 18.5t27.5 52.5t-25 48t-54 18q-7 0 -13.5 0.5t-12.5 0.5q-11 0 -23 -0.5t-24 -2.5v128q8 -3 17.5 -4t19.5 -1q9 0 20.5 1.5t23.5 4.5q22 7 41 22t19 44q0 24 -16.5 41t-49.5 17
q-32 0 -60.5 -11t-53.5 -29v171q32 16 78.5 29.5t97.5 13.5q77 0 135.5 -46.5t58.5 -142.5q0 -52 -21 -95t-76 -74q64 -31 89 -71t25 -93q0 -87 -63 -150t-168 -63q-6 0 -12 0.5t-12 0.5q-38 3 -74 14t-63 24v1z" />
    <glyph glyph-name="four" unicode="4" horiz-adv-x="516" 
d="M255 0v165h-241v169l173 378h244v-387h60v-158h-60v-167h-176zM257 325v255h-2l-101 -255h103z" />
    <glyph glyph-name="five" unicode="5" horiz-adv-x="467" 
d="M45 290v422h356v-174h-176v-106q8 1 17.5 2t22.5 1q10 0 21 -1t21 -4q51 -12 93 -58t42 -136q0 -112 -69 -180t-187 -68q-41 0 -80.5 10t-72.5 27v167q8 -7 15.5 -11.5t15.5 -8.5q17 -9 34 -14t38 -5q47 0 75.5 22.5t28.5 64.5t-29 61.5t-70 19.5h-3.5h-3.5
q-25 -2 -49 -11t-40 -21v1z" />
    <glyph glyph-name="six" unicode="6" horiz-adv-x="548" 
d="M197 712h210l-18 -22t-17 -23q-27 -34 -52.5 -72.5t-44.5 -78.5q-7 -14 -13 -29t-11 -29q16 10 31 16t29 9q10 2 20 3t20 1q82 0 129.5 -62.5t47.5 -165.5q0 -111 -60.5 -191t-202.5 -80q-13 0 -27 1.5t-28 4.5q-70 14 -128 79t-58 205q0 10 0.5 20t1.5 20q8 86 50 178.5
t121 214.5v1zM274 162q36 -1 52.5 24t16.5 61q0 44 -16.5 70t-48.5 26q-34 0 -51.5 -23.5t-17.5 -65.5v-4v-4q1 -32 14 -58.5t51 -26.5v1z" />
    <glyph glyph-name="seven" unicode="7" horiz-adv-x="445" 
d="M36 712h395v-115l-201 -597h-197l198 538h-195v174z" />
    <glyph glyph-name="eight" unicode="8" horiz-adv-x="574" 
d="M35 525q0 91 65 144.5t187 53.5t187 -53.5t65 -145.5q0 -48 -23.5 -91.5t-91.5 -64.5v-1q65 -12 92.5 -60t29.5 -103v-3.5v-3.5v-2.5v-3.5q-2 -76 -60 -139.5t-199 -63.5t-199 63.5t-60 139.5v3.5v2.5v3.5v3.5q2 55 29.5 103t92.5 59v3q-68 20 -91.5 63.5t-23.5 91.5v1z
M356 222q0 31 -16 54t-53 23t-53 -23t-16 -55q0 -28 15.5 -51t53.5 -23t53.5 23t15.5 51v1zM220 497q0 -38 19.5 -58t47.5 -20q29 0 48 20t19 57v1.5v1.5q-1 24 -17 44t-50 20q-36 0 -51 -20t-16 -44v-1.5v-1.5v1z" />
    <glyph glyph-name="nine" unicode="9" horiz-adv-x="548" 
d="M351 0h-210q9 9 18 20t17 23q27 34 52.5 72.5t44.5 78.5q7 14 13 29t11 29q-16 -10 -31 -16t-29 -9q-10 -2 -20 -3t-20 -1q-82 0 -129.5 62.5t-47.5 165.5q0 111 60.5 191.5t202.5 80.5q13 0 27 -1.5t28 -4.5q70 -15 128 -80t58 -205q0 -10 -0.5 -20t-1.5 -20
q-8 -86 -50 -178.5t-121 -213.5zM274 550q-36 -1 -52.5 -26t-16.5 -61q0 -44 16.5 -70t48.5 -26q34 0 51.5 23.5t17.5 65.5v4v4q-1 32 -14 58.5t-51 26.5v1z" />
    <glyph glyph-name="colon" unicode=":" horiz-adv-x="244" 
d="M27 95q0 38 28 66t67 28t67 -28t28 -67t-28 -66.5t-67 -27.5t-67 27.5t-28 66.5v1zM27 399q0 38 28 66t67 28t67 -28t28 -67t-28 -67t-67 -28t-67 28t-28 67v1z" />
    <glyph glyph-name="semicolon" unicode=";" horiz-adv-x="260" 
d="M26 -87l53 242h167l-101 -242h-119zM41 399q0 38 28 66t67 28t67 -28t28 -67t-28 -67t-67 -28t-67 28t-28 67v1z" />
    <glyph glyph-name="less" unicode="&#x3c;" horiz-adv-x="533" 
d="M3 206v94l506 214v-115l-351 -146l351 -146v-115z" />
    <glyph glyph-name="equal" unicode="=" horiz-adv-x="561" 
d="M36 81v120h506v-120h-506zM36 305v120h506v-120h-506z" />
    <glyph glyph-name="greater" unicode="&#x3e;" horiz-adv-x="545" 
d="M542 300v-94l-506 -214v115l351 146l-351 146v115z" />
    <glyph glyph-name="question" unicode="?" horiz-adv-x="394" 
d="M69 83q0 38 28 66t67 28t67 -28t28 -67t-28 -66.5t-67 -27.5t-67 27.5t-28 66.5v1zM26 521v176q35 10 75 18t87 8q95 0 143 -54.5t48 -134.5q0 -52 -20.5 -88.5t-45.5 -65.5q-9 -11 -18 -21.5t-17 -20.5q-13 -18 -22 -36t-9 -39q0 -6 0.5 -11t1.5 -10q0 -6 1.5 -11
t2.5 -11l-179 1q-4 16 -5.5 31.5t-1.5 28.5q0 31 16.5 56.5t36.5 50.5q0 1 0.5 1.5l1.5 1.5q21 26 38 53t17 59q0 28 -14.5 42.5t-32.5 16.5q-2 1 -4.5 1h-4.5q-4 0 -8.5 -0.5t-8.5 -1.5q-18 -3 -35 -12t-30 -19q-4 -2 -7 -5t-6 -5v1z" />
    <glyph glyph-name="at" unicode="@" horiz-adv-x="786" 
d="M511 485l9 48h96l-42 -216q-4 -25 -6 -35t-2 -18q0 -10 5.5 -16t13.5 -6q6 0 13 2t14 6q22 13 40.5 47.5t18.5 95.5q0 119 -75 179.5t-189 60.5q-125 0 -199.5 -78t-74.5 -201q0 -130 81.5 -203.5t209.5 -73.5q56 0 104.5 16t85.5 43l99 1q-53 -73 -129 -111t-168 -38
q-160 0 -275.5 102.5t-115.5 263.5q0 158 113.5 263.5t271.5 105.5q133 0 242 -81t109 -218q0 -98 -42 -156t-93 -88q-37 -22 -71 -30.5t-51 -8.5q-22 0 -37.5 11.5t-16.5 36.5l-2 1q-16 -23 -39 -36t-58 -13q-65 0 -116.5 51t-51.5 124q0 87 56 157t149 70q37 0 68.5 -14
t54.5 -45v1zM303 334q0 -35 20 -60t57 -25q45 0 73.5 32t28.5 74q0 36 -21.5 58t-58.5 22q-41 0 -69 -30t-30 -66v-3.5v-2.5v1z" />
    <glyph glyph-name="A" unicode="A" horiz-adv-x="617" 
d="M22 0l139 712h294l139 -712h-198l-18 120h-140l-18 -120h-198zM354 280l-45 294h-2l-45 -294h92z" />
    <glyph glyph-name="B" unicode="B" horiz-adv-x="578" 
d="M36 0v712h275q116 -1 168.5 -58.5t52.5 -131.5q0 -55 -28 -92.5t-77 -53.5v-1q1 -1 2.5 -1.5t3.5 -0.5q44 -13 81 -51t37 -116v-4v-5q-3 -74 -62 -135.5t-185 -61.5h-268zM226 296v-130h63q34 -1 50 18t16 47q0 35 -18.5 49.5t-58.5 14.5zM226 552v-118h53
q35 -1 51.5 15.5t16.5 41.5q0 34 -22 47t-66 13z" />
    <glyph glyph-name="C" unicode="C" horiz-adv-x="478" 
d="M443 205v-194q-3 -2 -7.5 -3.5t-9.5 -3.5q-21 -5 -52.5 -10t-65.5 -6h-4.5h-4.5q-142 0 -208.5 94.5t-66.5 254.5q0 171 72 278.5t212 107.5q29 0 63.5 -7t71.5 -21v-182q-10 6 -20.5 12t-20.5 10q-11 4 -21.5 6t-20.5 2q-64 0 -99 -48.5t-35 -152.5q0 -85 27.5 -130
t79.5 -45q17 0 30.5 2.5t26.5 6.5q12 5 25 12t28 16v1z" />
    <glyph glyph-name="D" unicode="D" horiz-adv-x="595" 
d="M36 0v712h241q151 -1 214 -88t75 -191q2 -18 3 -35.5t1 -34.5v-6v-5q-3 -133 -73 -242.5t-244 -109.5h-217zM226 552v-372h34q9 -1 18.5 1t19.5 7q27 13 48.5 53t21.5 127q0 107 -33.5 141.5t-73.5 39.5q-9 1 -17.5 1.5t-17.5 0.5v1z" />
    <glyph glyph-name="E" unicode="E" horiz-adv-x="425" 
d="M36 0v712h361v-166h-171v-102h150v-166h-150v-112h173v-166h-363z" />
    <glyph glyph-name="F" unicode="F" horiz-adv-x="426" 
d="M39 0v712h375v-166h-185v-102h165v-166h-165v-278h-190v0z" />
    <glyph glyph-name="G" unicode="G" horiz-adv-x="587" 
d="M315 277v144h245v-186q0 -111 -63 -179t-189 -68q-147 0 -214.5 102t-67.5 266q0 154 80.5 260.5t231.5 106.5q53 0 91.5 -8.5t64.5 -21.5v-194q-18 19 -50.5 34t-67.5 16h-3.5h-2.5q-73 0 -110.5 -54.5t-37.5 -149.5q0 -82 22 -130t74 -48q36 0 52 17t16 45v48h-71z" />
    <glyph glyph-name="H" unicode="H" horiz-adv-x="569" 
d="M36 0v712h190v-268h116v268h190v-712h-190v284h-116v-284h-190z" />
    <glyph glyph-name="I" unicode="I" horiz-adv-x="263" 
d="M36 0v712h190v-712h-190z" />
    <glyph glyph-name="J" unicode="J" horiz-adv-x="359" 
d="M16 9v178q6 -5 12.5 -8t13.5 -5q10 -4 19 -5.5t15 -1.5q32 0 45.5 18.5t13.5 43.5v483h190v-500q0 -89 -36.5 -156.5t-155.5 -67.5q-10 0 -20 1t-21 2q-21 3 -40.5 7.5t-35.5 9.5v1z" />
    <glyph glyph-name="K" unicode="K" horiz-adv-x="587" 
d="M36 0v712h190v-325h2l128 325h195l-142 -330l148 -382h-206l-123 356h-2v-356h-190z" />
    <glyph glyph-name="L" unicode="L" horiz-adv-x="406" 
d="M36 0v712h190v-538h166v-174h-356z" />
    <glyph glyph-name="M" unicode="M" horiz-adv-x="754" 
d="M36 0v712h269l71 -454h2l71 454h269v-712h-174v568h-2l-107 -568h-126l-98 546h1h-2v-546h-174z" />
    <glyph glyph-name="N" unicode="N" horiz-adv-x="605" 
d="M36 0v712h217l140 -457h2v457h174v-712h-217l-140 456h-2v-456h-174z" />
    <glyph glyph-name="O" unicode="O" horiz-adv-x="656" 
d="M628 356q1 -155 -69 -261.5t-231 -106.5q-160 0 -230.5 106.5t-69.5 260.5q1 146 68 257t232 111t232 -111t68 -257v1zM224 361q0 -98 29 -141t75 -43q47 0 75.5 43t28.5 140t-28.5 140t-75.5 43q-46 0 -75 -43t-29 -140v1z" />
    <glyph glyph-name="P" unicode="P" horiz-adv-x="553" 
d="M36 0v712h248q119 -1 188.5 -64t69.5 -178q0 -112 -74 -176t-188 -64l-54 1v-231h-190zM226 552v-161h23q38 -1 64.5 17t26.5 61q0 48 -28 65t-66 17z" />
    <glyph glyph-name="Q" unicode="Q" horiz-adv-x="653" 
d="M610 25l-127 -97l-81 69l-18 -4t-19 -3t-20 -1.5t-21 -0.5q-160 0 -230.5 106.5t-69.5 260.5q1 146 68 257t232 111t232 -111t68 -257q1 -83 -19 -154.5t-62 -121.5zM220 361q0 -98 29 -141t75 -43q47 0 75.5 43t28.5 140t-28.5 140t-75.5 43q-46 0 -75 -43t-29 -140v1z
" />
    <glyph glyph-name="R" unicode="R" horiz-adv-x="596" 
d="M36 0v712h271q137 -1 188 -72t51 -157q0 -62 -24 -110.5t-79 -71.5l127 -301h-196l-98 252h-50v-252h-190zM226 552v-153q8 -2 16.5 -3t17.5 -1q32 0 58 20t26 61t-25.5 58t-62.5 17z" />
    <glyph glyph-name="S" unicode="S" horiz-adv-x="504" 
d="M43 27v203q6 -6 13.5 -11.5t16.5 -10.5q23 -16 54 -28.5t63 -12.5q38 0 58 12.5t20 37.5q0 20 -15.5 33t-39.5 24q-15 7 -31.5 14t-33.5 16q-45 24 -82.5 67.5t-37.5 132.5q0 10 1 19.5t2 19.5q12 67 70 123.5t183 56.5q7 0 14.5 -0.5t14.5 -0.5q35 -3 67.5 -11.5
t51.5 -17.5q3 -2 6 -3.5t5 -3.5v-191q-18 13 -36.5 23t-37.5 16q-13 5 -25.5 7t-24.5 2q-32 0 -56.5 -13t-24.5 -39q0 -22 17.5 -35t43.5 -23q14 -6 29 -11.5t30 -12.5q45 -21 82.5 -62t37.5 -129q0 -11 -1 -22.5t-3 -23.5q-13 -69 -73.5 -126.5t-189.5 -57.5q-57 0 -98 11
t-70 27v1z" />
    <glyph glyph-name="T" unicode="T" horiz-adv-x="476" 
d="M143 0v546h-122v166h434v-166h-122v-546h-190z" />
    <glyph glyph-name="U" unicode="U" horiz-adv-x="563" 
d="M33 236v476h190v-476q0 -31 12.5 -50t45.5 -19t45.5 19t12.5 49v477h190v-476q0 -142 -73.5 -195t-174.5 -53t-174.5 53t-73.5 194v1z" />
    <glyph glyph-name="V" unicode="V" horiz-adv-x="614" 
d="M184 0l-164 712h198l88 -524h2l90 524h196l-164 -712h-246z" />
    <glyph glyph-name="W" unicode="W" horiz-adv-x="864" 
d="M144 0l-116 712h192l54 -538h2l59 538h194l59 -522h2l54 522h192l-116 -712h-224l-63 502h-2l-63 -502h-224z" />
    <glyph glyph-name="X" unicode="X" horiz-adv-x="594" 
d="M29 0l160 376l-148 336h202l56 -193h2l64 193h193l-152 -336l158 -376h-199l-68 194h-2l-70 -194h-196z" />
    <glyph glyph-name="Y" unicode="Y" horiz-adv-x="550" 
d="M180 0v280l-163 432h189l68 -258h2l68 258h189l-163 -432v-280h-190z" />
    <glyph glyph-name="Z" unicode="Z" horiz-adv-x="502" 
d="M32 0l181 546h-159v166h416l-181 -546h162v-166h-419z" />
    <glyph glyph-name="bracketleft" unicode="[" horiz-adv-x="261" 
d="M37 -177v984h213v-60h-99v-864h99v-60h-213z" />
    <glyph glyph-name="backslash" unicode="\" horiz-adv-x="379" 
d="M246 -12l-239 736h126l239 -736h-126z" />
    <glyph glyph-name="bracketright" unicode="]" horiz-adv-x="262" 
d="M224 807v-984h-213v60h99v864h-99v60h213z" />
    <glyph glyph-name="asciicircum" unicode="^" horiz-adv-x="488" 
d="M17 347l174 365h106l174 -365h-116l-111 245l-111 -245h-116z" />
    <glyph glyph-name="underscore" unicode="_" horiz-adv-x="575" 
d="M537 -125h-500v50h500v-50z" />
    <glyph glyph-name="grave" unicode="`" horiz-adv-x="288" 
d="M155 530l-146 174h184l73 -174h-111z" />
    <glyph glyph-name="a" unicode="a" horiz-adv-x="535" 
d="M324 0v49h-2q-19 -29 -51 -44t-74 -15q-87 0 -127 64t-40 170q0 149 48.5 211t127.5 62q44 0 73.5 -20t42.5 -56l2 1v66h174v-488h-174zM276 156q32 -1 40 25.5t8 57.5v1.5v1.5q0 35 -8 62t-38 27q-33 0 -45 -25.5t-13 -55.5v-4v-4q0 -39 11.5 -63t44.5 -24v1z" />
    <glyph glyph-name="b" unicode="b" horiz-adv-x="517" 
d="M37 0v712h174v-283h2q18 31 49.5 49.5t74.5 18.5q86 0 125.5 -71.5t39.5 -187.5q0 -18 -1 -37t-4 -38q-10 -65 -45.5 -119t-117.5 -54q-50 0 -79 22t-42 61l-2 1v-74h-174zM312 240q0 51 -12.5 71t-37.5 20q-29 0 -40 -25t-11 -57q0 -44 11 -69t39 -25q24 0 37.5 21
t13.5 63v1z" />
    <glyph glyph-name="c" unicode="c" horiz-adv-x="380" 
d="M344 175v-160q-11 -6 -21.5 -9.5t-21.5 -5.5q-18 -5 -36 -7.5t-37 -2.5q-97 0 -142.5 60t-56.5 133q-3 15 -4 30t-1 30q0 123 64 188.5t147 65.5q26 0 52.5 -5.5t56.5 -25.5v-148q-8 6 -17 10.5t-18 6.5q-6 1 -12 1.5t-12 0.5q-37 0 -59 -23t-22 -73q0 -51 21.5 -71.5
t50.5 -20.5q23 0 40.5 7.5t27.5 17.5v1z" />
    <glyph glyph-name="d" unicode="d" horiz-adv-x="518" 
d="M306 0v74h-2q-13 -40 -42 -62t-79 -22q-82 0 -117.5 54t-45.5 119q-3 19 -4 38t-1 37q0 116 40 187.5t125 71.5q44 0 75 -18.5t49 -50.5l2 1v283h174v-712h-174zM205 240q0 -43 13.5 -64t37.5 -21q29 0 39.5 25t10.5 69q0 32 -11 57t-40 25q-25 0 -37.5 -20t-12.5 -72v1z
" />
    <glyph glyph-name="e" unicode="e" horiz-adv-x="478" 
d="M414 177v-150q-31 -17 -76 -27t-95 -10q-121 0 -168 75.5t-47 187.5q0 121 62.5 182.5t153.5 61.5h11.5t11.5 -1q69 -5 126.5 -49t57.5 -153q0 -19 -0.5 -34.5t-2.5 -31.5q0 -2 -0.5 -4.5t-0.5 -5.5l-239 1q0 -47 22 -66.5t51 -19.5q17 0 33.5 3t33.5 9q16 6 32.5 14
t33.5 17v1zM208 303h95q0 28 -10 45t-34 17q-27 0 -37.5 -16t-13.5 -47v1z" />
    <glyph glyph-name="f" unicode="f" horiz-adv-x="367" 
d="M85 0v344h-67v144h65v70q0 79 33 122t120 43q31 0 56.5 -4t50.5 -12v-136q-9 4 -17.5 6t-16.5 2q-21 0 -35.5 -12.5t-14.5 -35.5v-43h69v-144h-69v-344h-174z" />
    <glyph glyph-name="g" unicode="g" horiz-adv-x="526" 
d="M317 488h174v-505q0 -92 -61 -149.5t-164 -57.5q-17 0 -35 1.5t-36 4.5q-24 4 -47.5 11t-43.5 16v141q40 -17 67 -23.5t48 -6.5q48 0 68 18.5t26 40.5q2 9 3 17t1 15v55h-2q-13 -29 -43 -47.5t-80 -18.5q-97 0 -131.5 73.5t-34.5 174.5v14t1 14q4 83 41.5 152t130.5 69
q45 0 78.5 -24.5t37.5 -56.5l2 1v71zM216 245q0 -31 9 -55.5t41 -24.5h3.5h3.5q17 3 30.5 19t13.5 60q0 34 -8 60t-41 27q-27 1 -37.5 -18t-13.5 -42q0 -7 -0.5 -14t-0.5 -13v1z" />
    <glyph glyph-name="h" unicode="h" horiz-adv-x="488" 
d="M37 0v712h174v-274h2q23 29 53.5 44t70.5 15q59 0 95.5 -33.5t36.5 -101.5v-362h-174v283q0 31 -9.5 46.5t-32.5 15.5q-22 0 -32 -15.5t-10 -47.5v-282h-174z" />
    <glyph glyph-name="i" unicode="i" horiz-adv-x="257" 
d="M41 0v488h174v-488h-174zM30 614q0 40 29 68.5t69 28.5q41 0 69.5 -28.5t28.5 -69.5q0 -40 -28.5 -69t-69.5 -29q-40 0 -69 29t-29 69v1z" />
    <glyph glyph-name="j" unicode="j" horiz-adv-x="356" 
d="M14 -214v155q14 -8 28.5 -11.5t33.5 -3.5q41 0 52.5 18.5t11.5 43.5v500h174v-546q0 -95 -44.5 -136.5t-97.5 -50.5q-9 -2 -19 -2.5t-19 -0.5q-14 0 -28.5 3t-30.5 7q-16 5 -31 11t-29 13h-1zM129 614q0 40 29 68.5t69 28.5q41 0 69.5 -28.5t28.5 -69.5q0 -40 -28.5 -69
t-69.5 -29q-40 0 -69 29t-29 69v1z" />
    <glyph glyph-name="k" unicode="k" horiz-adv-x="495" 
d="M37 0v712h174v-434h2l75 210h184l-96 -228l108 -260h-189l-82 220h-2v-220h-174z" />
    <glyph glyph-name="l" unicode="l" horiz-adv-x="250" 
d="M37 0v712h174v-712h-174z" />
    <glyph glyph-name="m" unicode="m" horiz-adv-x="745" 
d="M37 0v488h174v-66h2q13 38 46.5 56.5t74.5 18.5q51 0 76.5 -18t37.5 -58l2 1q13 37 38 52.5t52 20.5q10 1 20 1.5t19 0.5q61 0 95.5 -34t34.5 -96v-367h-174v289q0 20 -8.5 31t-26.5 11q-17 0 -28.5 -11t-11.5 -32v-288h-174v289q0 20 -8.5 31t-26.5 11q-17 0 -28.5 -11
t-11.5 -32v-288h-174z" />
    <glyph glyph-name="n" unicode="n" horiz-adv-x="505" 
d="M37 0v488h174v-50h2q23 29 53.5 44t70.5 15q59 0 95.5 -33.5t36.5 -101.5v-362h-174v283q0 31 -9.5 46.5t-32.5 15.5q-22 0 -32 -15.5t-10 -47.5v-282h-174z" />
    <glyph glyph-name="o" unicode="o" horiz-adv-x="528" 
d="M501 244q0 -100 -53.5 -177t-183.5 -77t-183.5 77t-53.5 176t53.5 176.5t183.5 77.5t183.5 -77.5t53.5 -176.5v1zM321 244q0 55 -15 78t-42 23t-42 -23t-15 -79t15 -79t42 -23t42 23t15 79v1z" />
    <glyph glyph-name="p" unicode="p" horiz-adv-x="518" 
d="M37 -161v649h174v-59h2q18 31 49.5 49.5t74.5 18.5q86 0 125.5 -71.5t39.5 -187.5q0 -111 -33 -161.5t-73 -66.5q-17 -6 -33 -8t-30 -2q-41 0 -69 14.5t-51 45.5l-2 1v-222h-174zM312 240q0 51 -14 71t-37 20q-30 0 -40 -25t-10 -57q0 -37 10 -63.5t41 -26.5
q28 0 39 20.5t11 59.5v1z" />
    <glyph glyph-name="q" unicode="q" horiz-adv-x="520" 
d="M482 488v-649h-174v222h-2q-22 -32 -50.5 -46.5t-69.5 -14.5q-14 0 -30 2t-33 8q-40 16 -73 66.5t-33 161.5q0 116 40 187.5t125 71.5q44 0 75 -18.5t49 -50.5l2 1v59h174zM207 240q0 -40 11 -60.5t39 -20.5q31 0 41 26.5t10 63.5q0 32 -10 57t-40 25q-23 0 -37 -20
t-14 -72v1z" />
    <glyph glyph-name="r" unicode="r" horiz-adv-x="350" 
d="M37 0v488h174v-48h2q19 25 39.5 41t48.5 16q11 0 18.5 -1.5t14.5 -3.5v-154q-9 3 -21 5t-25 2q-35 0 -56 -22.5t-21 -72.5v-250h-174z" />
    <glyph glyph-name="s" unicode="s" horiz-adv-x="405" 
d="M40 19v147q7 -6 15 -11t15 -9q21 -12 41.5 -18.5t36.5 -6.5h1.5h1.5q16 1 29 10t13 27q0 13 -11 20.5t-28 14.5q-10 4 -21 8t-22 10q-31 14 -56.5 40.5t-25.5 81.5q0 71 54 117.5t139 46.5q34 0 60 -6t51 -16q5 -2 10.5 -4t11.5 -4v-138q-19 14 -44 25t-54 11
q-19 0 -31 -11.5t-12 -26.5q0 -13 11.5 -20.5t28.5 -14.5q9 -3 20 -7t22 -9q31 -13 56.5 -38.5t25.5 -78.5q0 -76 -53 -122.5t-145 -46.5q-14 0 -29 1t-31 3q-21 3 -41.5 8.5t-38.5 15.5v1z" />
    <glyph glyph-name="t" unicode="t" horiz-adv-x="346" 
d="M85 0v344h-67v144h67v123h174v-123h69v-144h-69v-344h-174z" />
    <glyph glyph-name="u" unicode="u" horiz-adv-x="505" 
d="M468 488v-488h-174v50h-2q-23 -31 -53 -45.5t-71 -14.5q-59 0 -95.5 33.5t-36.5 100.5v364h174v-283q0 -32 10 -48t32 -16q23 0 32.5 16t9.5 47v284h174z" />
    <glyph glyph-name="v" unicode="v" horiz-adv-x="523" 
d="M160 0l-139 488h180l60 -316h2l60 316h180l-143 -488h-200z" />
    <glyph glyph-name="w" unicode="w" horiz-adv-x="737" 
d="M114 0l-85 488h173l39 -314h2l55 314h144l45 -304h2l48 304h172l-101 -488h-191l-51 309h-2l-61 -309h-189z" />
    <glyph glyph-name="x" unicode="x" horiz-adv-x="520" 
d="M31 0l127 248l-119 240h178l47 -127l47 127h178l-126 -240l124 -248h-184l-48 139h-2l-47 -139h-175z" />
    <glyph glyph-name="y" unicode="y" horiz-adv-x="496" 
d="M96 -161l64 193l-136 456h177l53 -236h2l52 236h175l-210 -649h-177z" />
    <glyph glyph-name="z" unicode="z" horiz-adv-x="424" 
d="M31 0l135 344h-111v144h335l-130 -336h124v-152h-353z" />
    <glyph glyph-name="braceleft" unicode="{" horiz-adv-x="320" 
d="M294 807v-96h-34q-31 -1 -44.5 -16t-13.5 -51v-222q0 -44 -28.5 -70t-63.5 -31q-2 0 -4.5 -0.5t-5.5 -0.5v-1q3 -1 5.5 -1.5t4.5 -0.5q35 -6 63.5 -30t28.5 -80v-222q0 -36 13.5 -51t44.5 -15h34v-96h-57q-54 0 -95.5 34.5t-41.5 110.5v206q0 49 -26 71.5t-66 22.5v103
q40 -1 66 19.5t26 64.5v207q0 75 41.5 109.5t95.5 34.5z" />
    <glyph glyph-name="bar" unicode="|" horiz-adv-x="196" 
d="M37 -12v736h120v-736h-120z" />
    <glyph glyph-name="braceright" unicode="}" horiz-adv-x="320" 
d="M26 807h57q54 -1 95.5 -35.5t41.5 -110.5v-205q0 -45 26 -65.5t66 -20.5v-101q-40 -1 -66 -23.5t-26 -72.5v-205q0 -76 -41.5 -110.5t-95.5 -34.5h-57v96h34q31 0 44.5 15t13.5 51v223q0 55 28.5 79t63.5 30q2 0 4.5 0.5t5.5 0.5v3q-3 -1 -5.5 -0.5t-4.5 0.5
q-35 5 -63.5 31t-28.5 69v224q0 35 -13.5 50t-44.5 15l-34 1v96z" />
    <glyph glyph-name="asciitilde" unicode="~" horiz-adv-x="521" 
d="M456 351l36 -106q-1 -2 -2 -3.5t-2 -2.5q-22 -31 -49.5 -56t-71.5 -25q-23 0 -44 7t-42 17q-4 2 -8 4.5t-8 4.5q-24 14 -52 24.5t-63 10.5q-31 0 -50 -21t-31 -46q-1 -1 -1.5 -2.5t-1.5 -2.5l-36 107q1 0 1.5 1.5t1.5 2.5q17 31 45.5 56t76.5 25q21 0 44.5 -7t47.5 -17
q5 -2 9.5 -4t9.5 -4q2 -1 4.5 -2t4.5 -2q3 -1 5 -2t5 -2q23 -11 44.5 -19.5t38.5 -8.5q28 0 48 21t36 46q1 1 2 2.5t2 2.5v1z" />
    <glyph glyph-name="exclamdown" unicode="&#xa1;" horiz-adv-x="255" 
d="M32 -226l20 487h150l20 -487h-190zM32 403q0 38 28 66t67 28t67 -28t28 -67t-28 -67t-67 -28t-67 28t-28 67v1z" />
    <glyph glyph-name="cent" unicode="&#xa2;" horiz-adv-x="362" 
d="M163 -88v82q-73 19 -106 79t-39 129q-1 10 -1.5 20.5t-0.5 20.5q0 100 42.5 162t104.5 83v79h96v-69q18 -3 37 -9.5t40 -20.5v-150q-8 6 -17 10.5t-18 6.5q-6 1 -12 1.5t-12 0.5q-37 0 -59 -23.5t-22 -78.5q0 -51 22 -68.5t58 -17.5h2.5h3.5q16 1 30.5 8t23.5 17v-162
q-19 -10 -38.5 -15t-38.5 -7v-78h-96z" />
    <glyph glyph-name="sterling" unicode="&#xa3;" horiz-adv-x="564" 
d="M48 297v108h58q-1 4 -2 9.5t-2 10.5q-2 11 -4.5 21t-3.5 21q-4 17 -6 35.5t-2 37.5q0 95 64 139t159 44q114 0 165 -52.5t51 -129.5v-27h-164q0 1 -0.5 3.5t-1.5 5.5q-4 21 -13.5 38.5t-34.5 17.5q-22 0 -33.5 -13t-11.5 -35q0 -10 4 -27.5t9 -39.5l4 -20l4 -20
q1 -5 1.5 -10t1.5 -10l133 1v-108h-124q0 -17 -3 -33.5t-9 -33.5q-7 -19 -19 -37.5t-29 -35.5l2 -1q13 8 30.5 14.5t35.5 8.5h4h4q11 0 22.5 -2t22.5 -4t22.5 -4t23.5 -2q24 0 40 3t31 9q2 1 3.5 1.5t3.5 1.5l53 -174q-10 -4 -20 -6l-20 -4q-20 -5 -39.5 -7.5t-37.5 -2.5
q-23 0 -46.5 4t-46.5 8q-24 5 -48 9t-48 4q-15 0 -34 -2.5t-38 -6.5q-23 -4 -44 -10t-37 -12l-54 152q59 25 80 67.5t21 94.5z" />
    <glyph glyph-name="currency" unicode="&#xa4;" horiz-adv-x="582" 
d="M32 157l57 57q-22 29 -34 65t-12 76q0 41 12 77.5t34 66.5l-57 57l61 59l56 -56q29 20 65.5 32t76.5 12t76.5 -12t65.5 -33l56 57l61 -59l-57 -57q22 -31 34 -67.5t12 -76.5t-12 -76.5t-33 -65.5l56 -56l-60 -60l-57 57q-30 -23 -66 -35t-76 -12t-76.5 12t-65.5 34
l-57 -56zM163 356q0 -59 36.5 -100t91.5 -41q56 0 92 41t36 99q0 59 -36 99.5t-92 40.5q-55 0 -91.5 -40.5t-36.5 -99.5v1z" />
    <glyph glyph-name="yen" unicode="&#xa5;" horiz-adv-x="544" 
d="M185 0v141h-147v102h147v37l-9 25h-138v102h99l-115 305h186l68 -258h2l68 258h176l-115 -305h99v-102h-137l-10 -25v-37h147v-102h-147v-141h-174z" />
    <glyph glyph-name="brokenbar" unicode="&#xa6;" horiz-adv-x="180" 
d="M37 263h120v-275h-120v275zM37 724h120v-275h-120v275z" />
    <glyph glyph-name="section" unicode="&#xa7;" horiz-adv-x="585" 
d="M25 -123l96 139q5 -5 9.5 -8.5t8.5 -7.5q30 -22 61 -35.5t68 -13.5q20 0 30.5 7t15.5 15q1 4 2 7.5t1 6.5q0 11 -8.5 19.5t-24.5 17.5q-3 2 -7.5 4.5t-9.5 4.5q-59 28 -99.5 50.5t-67.5 44.5q-36 30 -49.5 63t-13.5 79q0 56 25 91.5t63 56.5q-23 15 -36 39t-17 49
q-1 5 -1.5 10.5t-0.5 10.5q0 86 77.5 141t179.5 55q60 0 104 -12t74 -26q15 -7 26 -13.5t20 -11.5l-91 -133q-21 15 -47.5 29t-53.5 20q-8 1 -15.5 2t-15.5 1q-19 0 -33.5 -9.5t-14.5 -24.5q0 -12 11 -22.5t30 -20.5q20 -11 45.5 -22t53.5 -25q52 -26 95.5 -66.5
t43.5 -108.5q0 -55 -23.5 -94t-70.5 -68q29 -22 45.5 -54.5t16.5 -69.5q0 -10 -1.5 -20t-3.5 -20q-15 -55 -75.5 -101t-180.5 -46q-65 0 -120.5 16.5t-108.5 46.5q-3 2 -6 3.5t-6 3.5zM328 300l-88 49l-3.5 -3.5t-2.5 -3.5q-10 -8 -16.5 -18.5t-6.5 -26.5q0 -7 1.5 -13
t5.5 -13q10 -15 39.5 -33t90.5 -48q8 8 14.5 16t10.5 17q3 5 4.5 11t1.5 11q0 17 -13.5 28.5t-30.5 21.5q-2 1 -3.5 2t-3.5 2v1z" />
    <glyph glyph-name="dieresis" unicode="&#xa8;" horiz-adv-x="468" 
d="M32 616q1 35 26.5 60.5t60.5 25.5q36 0 61.5 -25.5t25.5 -61.5t-25.5 -61.5t-61.5 -25.5q-35 0 -60.5 25.5t-25.5 61.5zM262 616q0 35 25.5 60.5t61.5 25.5t61.5 -25.5t25.5 -61.5t-25.5 -61.5t-61.5 -25.5t-61.5 25.5t-25.5 61.5v1z" />
    <glyph glyph-name="copyright" unicode="&#xa9;" horiz-adv-x="786" 
d="M25 356q0 151 108 259t260 108t260 -108t108 -260t-108 -259.5t-260 -107.5t-260 107.5t-108 259.5v1zM653 356q0 124 -76 200.5t-184 76.5t-184 -76.5t-76 -201.5q0 -124 76 -201t184 -77t184 77t76 201v1zM491 302h93q-10 -77 -60.5 -116t-115.5 -39q-92 0 -148 61
t-56 150q0 92 54 152.5t148 60.5q67 0 115 -38.5t59 -113.5l-89 1q-8 33 -29.5 47t-50.5 14q-46 0 -69.5 -32.5t-23.5 -93.5q0 -56 24.5 -87t66.5 -31q33 0 54 15t28 49v1z" />
    <glyph glyph-name="ordfeminine" unicode="&#xaa;" horiz-adv-x="392" 
d="M234 425v31l-2 -2q-11 -17 -32 -26.5t-48 -9.5q-67 0 -94 38.5t-27 102.5q0 82 29 123t98 41q32 0 49.5 -12t25.5 -34l-1 -1h2v42h120v-293h-120zM171 571q0 -23 7 -37t25 -14q20 0 25.5 14t5.5 31v2.5v2.5v6t-1 7q-1 12 -7 22t-21 10t-22.5 -9.5t-9.5 -20.5
q-1 -4 -1.5 -8t-0.5 -7v1z" />
    <glyph glyph-name="guillemotleft" unicode="&#xab;" horiz-adv-x="369" 
d="M25 187v192l134 106v-149l-73 -53l73 -53v-149zM199 187v192l134 106v-149l-73 -53l73 -53v-149z" />
    <glyph glyph-name="logicalnot" unicode="&#xac;" horiz-adv-x="550" 
d="M392 305h-386v120h506v-317h-120v197z" />
    <glyph glyph-name="uni00AD" unicode="&#xad;" horiz-adv-x="367" 
d="M37 211v144h292v-144h-292z" />
    <glyph glyph-name="registered" unicode="&#xae;" horiz-adv-x="786" 
d="M25 356q0 151 108 259t260 108t260 -108t108 -260t-108 -259.5t-260 -107.5t-260 107.5t-108 259.5v1zM653 356q0 124 -76 200.5t-184 76.5t-184 -76.5t-76 -201.5q0 -124 76 -201t184 -77t184 77t76 201v1zM334 323v-166h-90v400h148q78 -1 123 -26.5t45 -97.5
q0 -55 -29 -78.5t-71 -25.5l102 -172h-104l-90 166h-34zM334 395h76q26 -1 40 8.5t14 39.5q0 22 -15.5 30t-33.5 10q-7 1 -13 1h-12l-56 1v-90z" />
    <glyph glyph-name="macron" unicode="&#xaf;" horiz-adv-x="393" 
d="M37 671h318v-108h-318v108z" />
    <glyph glyph-name="degree" unicode="&#xb0;" horiz-adv-x="354" 
d="M26 573q0 61 44.5 105.5t106.5 44.5t106.5 -44.5t44.5 -106.5t-44.5 -106.5t-106.5 -44.5t-106.5 44.5t-44.5 106.5v1zM98 573q0 -34 23 -57t56 -23t56 23t23 56t-23 56t-56 23t-56 -23t-23 -56v1z" />
    <glyph glyph-name="plusminus" unicode="&#xb1;" horiz-adv-x="552" 
d="M23 0v120h506v-120h-506zM216 388v118h120v-118h193v-120h-193v-118h-120v118h-193v120h193z" />
    <glyph glyph-name="uni00B2" unicode="&#xb2;" horiz-adv-x="345" 
d="M34 381q21 17 42.5 39t39 46t28.5 47.5t11 43.5q0 21 -14 34t-37 13q-19 0 -35.5 -8.5t-28.5 -19.5v124q25 9 51.5 16.5t61.5 7.5q43 0 72.5 -11t47.5 -29t26 -41.5t8 -47.5q0 -30 -8.5 -56.5t-22.5 -49.5t-31.5 -43t-35.5 -36h106v-120h-281v91z" />
    <glyph glyph-name="uni00B3" unicode="&#xb3;" horiz-adv-x="324" 
d="M35 425q11 -8 27.5 -15t39.5 -7q50 0 50 30q0 17 -15.5 25.5t-43.5 8.5q-8 0 -15 -0.5t-15 -1.5v82q8 -1 17.5 -1.5t20.5 -0.5q21 0 33.5 9t12.5 23t-11 20.5t-28 6.5q-19 0 -37 -6.5t-36 -17.5v118q23 10 53.5 18t63.5 8q66 0 100.5 -31.5t34.5 -83.5q0 -41 -23 -64
t-52 -34v-2q37 -9 61.5 -31.5t24.5 -66.5q0 -26 -11 -49t-31 -40.5t-50 -28t-67 -10.5q-29 0 -56.5 7t-47.5 17v118z" />
    <glyph glyph-name="acute" unicode="&#xb4;" horiz-adv-x="288" 
d="M22 530l73 174h184l-146 -174h-111z" />
    <glyph glyph-name="mu" unicode="&#xb5;" horiz-adv-x="491" 
d="M37 -161v649h174v-283q0 -32 10 -48t32 -16q23 0 32.5 16t9.5 47v284h174v-488h-173v49h-2q-10 -34 -24 -46.5t-31 -12.5q-9 0 -16 3.5t-10 7.5l-2 1v-163h-174z" />
    <glyph glyph-name="paragraph" unicode="&#xb6;" horiz-adv-x="578" 
d="M203 -181v494q-71 -1 -129 48t-58 152q0 108 66.5 153t163.5 45l294 1v-893h-120v803h-97v-803h-120z" />
    <glyph glyph-name="periodcentered" unicode="&#xb7;" horiz-adv-x="262" 
d="M26 259q0 22 8 41t22.5 33t33.5 22.5t41 8.5t41 -8.5t33 -22.5t22.5 -33t8.5 -41t-8.5 -41t-22.5 -33.5t-33 -22.5t-41 -8t-41 8t-33.5 22.5t-22.5 33.5t-8 41z" />
    <glyph glyph-name="cedilla" unicode="&#xb8;" horiz-adv-x="215" 
d="M21 -143l44 133l141 -37l-100 -135z" />
    <glyph glyph-name="uni00B9" unicode="&#xb9;" horiz-adv-x="232" 
d="M59 597h-39v96h19q42 0 69 24h85v-427h-134v307z" />
    <glyph glyph-name="ordmasculine" unicode="&#xba;" horiz-adv-x="388" 
d="M28 571q0 71 43 111.5t126 40.5q94 0 128.5 -46.5t34.5 -106.5q0 -76 -46 -114t-120 -38q-83 0 -124.5 40.5t-41.5 111.5v1zM226 571q0 26 -9.5 38t-23.5 12q-13 0 -21.5 -14.5t-9.5 -36.5q0 -21 9.5 -35.5t22.5 -14.5q14 0 23 14.5t9 35.5v1z" />
    <glyph glyph-name="guillemotright" unicode="&#xbb;" horiz-adv-x="370" 
d="M171 379v-192l-134 -106v149l73 53l-73 53v149zM345 379v-192l-134 -106v149l73 53l-73 53v149z" />
    <glyph glyph-name="onequarter" unicode="&#xbc;" horiz-adv-x="782" 
d="M594 87h-157v125l101 215h183v-232h39v-107h-39v-88h-127v87zM594 337h-2l-65 -142h67v142zM487 733h110l-388 -754h-110zM66 597h-39v96h19q42 0 69 24h85v-427h-134v307z" />
    <glyph glyph-name="onehalf" unicode="&#xbd;" horiz-adv-x="794" 
d="M99 -21l388 754h110l-388 -754h-110zM490 0v91q5 3 10 7.5t11 9.5q18 17 36 37t32 41q15 22 23.5 42.5t8.5 37.5q0 21 -14 34t-37 13q-19 0 -35.5 -8.5t-28.5 -19.5v125q25 8 51.5 15.5t61.5 7.5q86 0 120 -40t34 -89q0 -55 -27.5 -99t-60.5 -76q-2 -3 -4.5 -5.5
t-5.5 -4.5l106 1v-120h-281zM66 290v307h-39v96h19q20 -1 38 5.5t31 17.5l85 1v-427h-134z" />
    <glyph glyph-name="threequarters" unicode="&#xbe;" horiz-adv-x="826" 
d="M637 87h-157v125l101 215h183v-232h39v-107h-39v-88h-127v87zM637 337h-2l-65 -142h67v142zM530 733h110l-388 -754h-110zM27 425q11 -8 27.5 -15t39.5 -7q50 0 50 30q0 17 -15.5 25.5t-43.5 8.5q-8 0 -15 -0.5t-15 -1.5v82q8 -1 17.5 -1.5t20.5 -0.5q21 0 33.5 9
t12.5 23t-11 20.5t-28 6.5q-19 0 -37 -6.5t-36 -17.5v118q23 10 53.5 18t63.5 8q66 0 100.5 -31.5t34.5 -83.5q0 -41 -23 -64t-52 -34v-2q37 -9 61.5 -31.5t24.5 -66.5q0 -26 -11 -49t-31 -40.5t-50 -28t-67 -10.5q-29 0 -56.5 7t-47.5 17v118z" />
    <glyph glyph-name="questiondown" unicode="&#xbf;" horiz-adv-x="395" 
d="M368 -35v-176q-34 -11 -74.5 -19t-87.5 -8q-95 0 -143 54.5t-48 134.5q0 51 20.5 87.5t45.5 65.5q9 11 18 21.5t17 20.5q13 18 22 36t9 39q0 6 -0.5 11t-0.5 11l-2 10t-3 11l179 1q4 -17 5.5 -33t1.5 -29q0 -31 -16.5 -56.5t-36.5 -50.5q0 -1 -0.5 -1.5l-1.5 -1.5
q-21 -26 -38 -53t-17 -58q0 -28 14.5 -42.5t32.5 -16.5q2 -1 4.5 -1h4.5q4 0 8.5 0.5t8.5 1.5q18 3 35 12t30 19q4 2 7 5t6 5zM325 403q0 -40 -28 -68t-67 -28t-67 28t-28 67t28 67t67 28t67 -28t28 -67v1z" />
    <glyph glyph-name="Agrave" unicode="&#xc0;" horiz-adv-x="608" 
d="M20 0l139 712h294l139 -712h-198l-18 120h-140l-18 -120h-198zM352 280l-45 294h-2l-45 -294h92zM264 754l-146 174h184l73 -174h-111z" />
    <glyph glyph-name="Aacute" unicode="&#xc1;" horiz-adv-x="608" 
d="M16 0l139 712h294l139 -712h-198l-18 120h-140l-18 -120h-198zM348 280l-45 294h-2l-45 -294h92zM233 754l73 174h184l-146 -174h-111z" />
    <glyph glyph-name="Acircumflex" unicode="&#xc2;" horiz-adv-x="613" 
d="M20 0l139 712h294l139 -712h-198l-18 120h-140l-18 -120h-198zM352 280l-45 294h-2l-45 -294h92zM116 754l114 174h164l102 -174h-143l-47 89l-47 -89h-143z" />
    <glyph glyph-name="Atilde" unicode="&#xc3;" horiz-adv-x="617" 
d="M22 0l139 712h294l139 -712h-198l-18 120h-140l-18 -120h-198zM354 280l-45 294h-2l-45 -294h92zM394 924h84v-9v-8q0 -56 -13.5 -103t-73.5 -47q-27 0 -46.5 8.5t-34.5 19.5q-10 6 -18.5 12t-16.5 10q-5 2 -10 3.5t-10 1.5q-15 0 -21 -15t-6 -35v-1.5v-0.5v-1.5v-1.5
l-90 1v23.5t1 25.5q3 43 20.5 79t71.5 36q25 0 44 -8t34 -17q13 -7 23.5 -14t21.5 -9q3 -1 5.5 -1.5t5.5 -0.5q18 0 23 12.5t6 27.5v5.5v5.5v1z" />
    <glyph glyph-name="Adieresis" unicode="&#xc4;" horiz-adv-x="622" 
d="M25 0l139 712h294l139 -712h-198l-18 120h-140l-18 -120h-198zM357 280l-45 294h-2l-45 -294h92zM109 840q0 35 25.5 60.5t61.5 25.5t61.5 -25.5t25.5 -61.5t-25.5 -61.5t-61.5 -25.5t-61.5 25.5t-25.5 61.5v1zM339 840q0 35 25.5 60.5t61.5 25.5t61.5 -25.5t25.5 -61.5
t-25.5 -61.5t-61.5 -25.5t-61.5 25.5t-25.5 61.5v1z" />
    <glyph glyph-name="Aring" unicode="&#xc5;" horiz-adv-x="608" 
d="M18 0l139 712h294l139 -712h-198l-18 120h-140l-18 -120h-198zM350 280l-45 294h-2l-45 -294h92zM201 840q0 42 30 72t73 30t73 -30t30 -73t-30 -73t-73 -30t-73 30t-30 73v1zM273 840q0 -14 9 -23t22 -9t22 9t9 22t-9 22t-22 9t-22 -9t-9 -22v1z" />
    <glyph glyph-name="AE" unicode="&#xc6;" horiz-adv-x="803" 
d="M18 0l267 712h484v-166h-171v-102h150v-166h-150v-112h173v-166h-363v171h-133l-53 -171h-204zM408 331v261h-2l-81 -261h83z" />
    <glyph glyph-name="Ccedilla" unicode="&#xc7;" horiz-adv-x="462" 
d="M150 -143l44 133l141 -37l-100 -135zM439 205v-194q-3 -2 -7.5 -3.5t-9.5 -3.5q-21 -5 -52.5 -10t-65.5 -6h-4.5h-4.5q-142 0 -208.5 94.5t-66.5 254.5q0 171 72 278.5t212 107.5q29 0 63.5 -7t71.5 -21v-182q-10 6 -20.5 12t-20.5 10q-11 4 -21.5 6t-20.5 2
q-64 0 -99 -48.5t-35 -152.5q0 -85 27.5 -130t79.5 -45q17 0 30.5 2.5t26.5 6.5q12 5 25 12t28 16v1z" />
    <glyph glyph-name="Egrave" unicode="&#xc8;" horiz-adv-x="428" 
d="M44 0v712h361v-166h-171v-102h150v-166h-150v-112h173v-166h-363zM176 754l-146 174h184l73 -174h-111z" />
    <glyph glyph-name="Eacute" unicode="&#xc9;" horiz-adv-x="420" 
d="M27 0v712h361v-166h-171v-102h150v-166h-150v-112h173v-166h-363zM132 754l73 174h184l-146 -174h-111z" />
    <glyph glyph-name="Ecircumflex" unicode="&#xca;" horiz-adv-x="440" 
d="M45 0v712h361v-166h-171v-102h150v-166h-150v-112h173v-166h-363zM29 754l114 174h164l102 -174h-143l-47 89l-47 -89h-143z" />
    <glyph glyph-name="Edieresis" unicode="&#xcb;" horiz-adv-x="468" 
d="M59 0v712h361v-166h-171v-102h150v-166h-150v-112h173v-166h-363zM31 840q0 35 25.5 60.5t61.5 25.5t61.5 -25.5t25.5 -61.5t-25.5 -61.5t-61.5 -25.5t-61.5 25.5t-25.5 61.5v1zM261 840q0 35 25.5 60.5t61.5 25.5t61.5 -25.5t25.5 -61.5t-25.5 -61.5t-61.5 -25.5
t-61.5 25.5t-25.5 61.5v1z" />
    <glyph glyph-name="Igrave" unicode="&#xcc;" horiz-adv-x="325" 
d="M103 0v712h190v-712h-190zM156 754l-146 174h184l73 -174h-111z" />
    <glyph glyph-name="Iacute" unicode="&#xcd;" horiz-adv-x="324" 
d="M31 0v712h190v-712h-190zM57 754l73 174h184l-146 -174h-111z" />
    <glyph glyph-name="Icircumflex" unicode="&#xce;" horiz-adv-x="411" 
d="M110 0v712h190v-712h-190zM15 754l114 174h164l102 -174h-143l-47 89l-47 -89h-143z" />
    <glyph glyph-name="Idieresis" unicode="&#xcf;" horiz-adv-x="444" 
d="M127 0v712h190v-712h-190zM20 840q1 35 26.5 60.5t60.5 25.5q36 0 61.5 -25.5t25.5 -61.5t-25.5 -61.5t-61.5 -25.5q-35 0 -60.5 25.5t-25.5 61.5zM250 840q0 35 25.5 60.5t61.5 25.5t61.5 -25.5t25.5 -61.5t-25.5 -61.5t-61.5 -25.5t-61.5 25.5t-25.5 61.5v1z" />
    <glyph glyph-name="Eth" unicode="&#xd0;" horiz-adv-x="634" 
d="M73 0v314h-44v120h44v278h257q137 -1 198.5 -88t74.5 -191q2 -18 3 -35.5t1 -34.5v-6v-5q-3 -133 -73 -242.5t-232 -109.5h-229zM263 314v-134h34q9 -1 18.5 1t19.5 7q27 13 48.5 53t21.5 127q0 107 -33.5 141.5t-73.5 39.5q-9 1 -17.5 1.5t-17.5 0.5v-117h63v-120h-63z
" />
    <glyph glyph-name="Ntilde" unicode="&#xd1;" horiz-adv-x="597" 
d="M32 0v712h217l140 -457h2v457h174v-712h-217l-140 456h-2v-456h-174zM385 924h84v-9v-8q0 -56 -13.5 -103t-73.5 -47q-27 0 -46.5 8.5t-34.5 19.5q-10 6 -18.5 12t-16.5 10q-5 2 -10 3.5t-10 1.5q-15 0 -21 -15t-6 -35v-1.5v-0.5v-1.5v-1.5l-90 1v23.5t1 25.5
q3 43 20.5 79t71.5 36q25 0 44 -8t34 -17q13 -7 23.5 -14t21.5 -9q3 -1 5.5 -1.5t5.5 -0.5q18 0 23 12.5t6 27.5v5.5v5.5v1z" />
    <glyph glyph-name="Ograve" unicode="&#xd2;" horiz-adv-x="642" 
d="M219 361q0 -97 28.5 -140t75.5 -43t75.5 43t28.5 140t-28.5 140t-75.5 43t-75.5 -43t-28.5 -140zM623 356q0 -77 -16.5 -144.5t-53 -117t-93.5 -78t-137 -28.5t-137 28.5t-93.5 78t-53 117t-16.5 144.5q0 73 16 139.5t51.5 117.5t92.5 81t140 30q82 0 139.5 -30t93 -81
t51.5 -117.5t16 -139.5zM135 928h184l73 -174h-111z" />
    <glyph glyph-name="Oacute" unicode="&#xd3;" horiz-adv-x="644" 
d="M620 356q1 -155 -69 -261.5t-231 -106.5q-160 0 -230.5 106.5t-69.5 260.5q1 146 68 257t232 111t232 -111t68 -257v1zM216 361q0 -98 29 -141t75 -43q47 0 75.5 43t28.5 140t-28.5 140t-75.5 43q-46 0 -75 -43t-29 -140v1zM251 754l73 174h184l-146 -174h-111z" />
    <glyph glyph-name="Ocircumflex" unicode="&#xd4;" horiz-adv-x="648" 
d="M624 356q1 -155 -69 -261.5t-231 -106.5q-160 0 -230.5 106.5t-69.5 260.5q1 146 68 257t232 111t232 -111t68 -257v1zM220 361q0 -98 29 -141t75 -43q47 0 75.5 43t28.5 140t-28.5 140t-75.5 43q-46 0 -75 -43t-29 -140v1zM134 754l114 174h164l102 -174h-143l-47 89
l-47 -89h-143v0z" />
    <glyph glyph-name="Otilde" unicode="&#xd5;" horiz-adv-x="650" 
d="M625 356q1 -155 -69 -261.5t-231 -106.5q-160 0 -230.5 106.5t-69.5 260.5q1 146 68 257t232 111t232 -111t68 -257v1zM221 361q0 -98 29 -141t75 -43q47 0 75.5 43t28.5 140t-28.5 140t-75.5 43q-46 0 -75 -43t-29 -140v1zM411 924h84v-9v-8q0 -56 -13.5 -103t-73.5 -47
q-27 0 -46.5 8.5t-34.5 19.5q-10 6 -18.5 12t-16.5 10q-5 2 -10 3.5t-10 1.5q-15 0 -21 -15t-6 -35v-1.5v-0.5v-1.5v-1.5l-90 1v23.5t1 25.5q3 43 20.5 79t71.5 36q25 0 44 -8t34 -17q13 -7 23.5 -14t21.5 -9q3 -1 5.5 -1.5t5.5 -0.5q18 0 23 12.5t6 27.5v5.5v5.5v1z" />
    <glyph glyph-name="Odieresis" unicode="&#xd6;" horiz-adv-x="652" 
d="M626 356q1 -155 -69 -261.5t-231 -106.5q-160 0 -230.5 106.5t-69.5 260.5q1 146 68 257t232 111t232 -111t68 -257v1zM222 361q0 -98 29 -141t75 -43q47 0 75.5 43t28.5 140t-28.5 140t-75.5 43q-46 0 -75 -43t-29 -140v1zM124 840q0 35 25.5 60.5t61.5 25.5t61.5 -25.5
t25.5 -61.5t-25.5 -61.5t-61.5 -25.5t-61.5 25.5t-25.5 61.5v1zM354 840q0 35 25.5 60.5t61.5 25.5t61.5 -25.5t25.5 -61.5t-25.5 -61.5t-61.5 -25.5t-61.5 25.5t-25.5 61.5v1z" />
    <glyph glyph-name="multiply" unicode="&#xd7;" horiz-adv-x="528" 
d="M28 407l82 82l154 -154l154 154l82 -82l-155 -154l155 -154l-82 -82l-154 155l-154 -155l-82 82l154 154z" />
    <glyph glyph-name="Oslash" unicode="&#xd8;" horiz-adv-x="663" 
d="M30 36l59 78q-30 48 -43.5 109.5t-13.5 131.5q1 146 68 257t232 111q58 0 102.5 -15t78.5 -43l49 64l72 -53l-60 -79q30 -49 44 -111.5t14 -130.5q1 -154 -69 -260.5t-231 -106.5q-57 0 -102.5 14.5t-79.5 42.5l-48 -62zM433 414l-162 -210q13 -14 28 -20.5t33 -6.5
q47 0 75.5 43t28.5 140q0 15 -0.5 28t-2.5 25v1zM232 300l165 215q-13 14 -29 21t-36 7q-46 0 -75 -43t-29 -140q0 -17 1 -32t3 -29v1z" />
    <glyph glyph-name="Ugrave" unicode="&#xd9;" horiz-adv-x="549" 
d="M29 236v476h190v-476q0 -31 12.5 -50t45.5 -19t45.5 19t12.5 49v477h190v-476q0 -142 -73.5 -195t-174.5 -53t-174.5 53t-73.5 194v1zM235 754l-146 174h184l73 -174h-111z" />
    <glyph glyph-name="Uacute" unicode="&#xda;" horiz-adv-x="549" 
d="M24 236v476h190v-476q0 -31 12.5 -50t45.5 -19t45.5 19t12.5 49v477h190v-476q0 -142 -73.5 -195t-174.5 -53t-174.5 53t-73.5 194v1zM203 754l73 174h184l-146 -174h-111z" />
    <glyph glyph-name="Ucircumflex" unicode="&#xdb;" horiz-adv-x="555" 
d="M29 236v476h190v-476q0 -31 12.5 -50t45.5 -19t45.5 19t12.5 49v477h190v-476q0 -142 -73.5 -195t-174.5 -53t-174.5 53t-73.5 194v1zM87 754l114 174h164l102 -174h-143l-47 89l-47 -89h-143z" />
    <glyph glyph-name="Udieresis" unicode="&#xdc;" horiz-adv-x="560" 
d="M32 236v476h190v-476q0 -31 12.5 -50t45.5 -19t45.5 19t12.5 49v477h190v-476q0 -142 -73.5 -195t-174.5 -53t-174.5 53t-73.5 194v1zM78 840q0 35 25.5 60.5t61.5 25.5t61.5 -25.5t25.5 -61.5t-25.5 -61.5t-61.5 -25.5t-61.5 25.5t-25.5 61.5v1zM308 840q0 35 25.5 60.5
t61.5 25.5t61.5 -25.5t25.5 -61.5t-25.5 -61.5t-61.5 -25.5t-61.5 25.5t-25.5 61.5v1z" />
    <glyph glyph-name="Yacute" unicode="&#xdd;" horiz-adv-x="539" 
d="M173 280l-163 432h189l68 -258h2l68 258h189l-163 -432v-280h-190v280zM272 928h184l-146 -174h-111z" />
    <glyph glyph-name="Thorn" unicode="&#xde;" horiz-adv-x="553" 
d="M37 0v712h191v-100h70q107 -1 176 -64t69 -178q0 -112 -74 -176t-188 -64l-54 1v-131h-190zM227 452v-161h23q38 -1 64.5 17t26.5 61q0 48 -28 65t-66 17z" />
    <glyph glyph-name="germandbls" unicode="&#xdf;" horiz-adv-x="524" 
d="M35 0v516q0 106 63 156.5t162 50.5q87 0 150.5 -44.5t63.5 -139.5q0 -49 -19 -86.5t-63 -60.5q60 -21 82.5 -70t22.5 -111v-10.5t-1 -10.5q-4 -75 -45.5 -137.5t-135.5 -62.5q-6 0 -12.5 0.5t-12.5 1.5q-13 2 -25.5 5t-21.5 6v139h12q2 -1 4.5 -1t4.5 1q20 2 36.5 20
t16.5 61q0 6 -0.5 12.5t-1.5 12.5q-4 20 -18 37t-45 17l-11 1v138q33 -1 46 18.5t13 50.5q0 29 -13 49t-34 20q-20 0 -32 -16.5t-12 -39.5v-523h-174z" />
    <glyph glyph-name="agrave" unicode="&#xe0;" horiz-adv-x="517" 
d="M320 0v49h-2q-19 -29 -51 -44t-74 -15q-87 0 -127 64t-40 170q0 149 48.5 211t127.5 62q44 0 73.5 -20t42.5 -56l2 1v66h174v-488h-174zM272 156q32 -1 40 25.5t8 57.5v1.5v1.5q0 35 -8 62t-38 27q-33 0 -45 -25.5t-13 -55.5v-4v-4q0 -39 11.5 -63t44.5 -24v1zM221 530
l-146 174h184l73 -174h-111z" />
    <glyph glyph-name="aacute" unicode="&#xe1;" horiz-adv-x="518" 
d="M313 0v49h-2q-19 -29 -51 -44t-74 -15q-87 0 -127 64t-40 170q0 149 48.5 211t127.5 62q44 0 73.5 -20t42.5 -56l2 1v66h174v-488h-174zM265 156q32 -1 40 25.5t8 57.5v1.5v1.5q0 35 -8 62t-38 27q-33 0 -45 -25.5t-13 -55.5v-4v-4q0 -39 11.5 -63t44.5 -24v1zM187 530
l73 174h184l-146 -174h-111z" />
    <glyph glyph-name="acircumflex" unicode="&#xe2;" horiz-adv-x="524" 
d="M319 0v49h-2q-19 -29 -51 -44t-74 -15q-87 0 -127 64t-40 170q0 149 48.5 211t127.5 62q44 0 73.5 -20t42.5 -56l2 1v66h174v-488h-174zM271 156q32 -1 40 25.5t8 57.5v1.5v1.5q0 35 -8 62t-38 27q-33 0 -45 -25.5t-13 -55.5v-4v-4q0 -39 11.5 -63t44.5 -24v1zM72 530
l114 174h164l102 -174h-143l-47 89l-47 -89h-143z" />
    <glyph glyph-name="atilde" unicode="&#xe3;" horiz-adv-x="528" 
d="M321 0v49h-2q-19 -29 -51 -44t-74 -15q-87 0 -127 64t-40 170q0 149 48.5 211t127.5 62q44 0 73.5 -20t42.5 -56l2 1v66h174v-488h-174zM273 156q32 -1 40 25.5t8 57.5v1.5v1.5q0 35 -8 62t-38 27q-33 0 -45 -25.5t-13 -55.5v-4v-4q0 -39 11.5 -63t44.5 -24v1zM350 700
h84v-9v-8q0 -56 -13.5 -103t-73.5 -47q-27 0 -46.5 8.5t-34.5 19.5q-10 6 -18.5 12t-16.5 10q-5 2 -10 3.5t-10 1.5q-15 0 -21 -15t-6 -35v-1.5v-0.5v-1.5v-1.5l-90 1v23.5t1 25.5q3 43 20.5 79t71.5 36q25 0 44 -8t34 -17q13 -7 23.5 -14t21.5 -9q3 -1 5.5 -1.5t5.5 -0.5
q18 0 23 12.5t6 27.5v5.5v5.5v1z" />
    <glyph glyph-name="adieresis" unicode="&#xe4;" horiz-adv-x="532" 
d="M324 0v49h-2q-19 -29 -51 -44t-74 -15q-87 0 -127 64t-40 170q0 149 48.5 211t127.5 62q44 0 73.5 -20t42.5 -56l2 1v66h174v-488h-174zM276 156q32 -1 40 25.5t8 57.5v1.5v1.5q0 35 -8 62t-38 27q-33 0 -45 -25.5t-13 -55.5v-4v-4q0 -39 11.5 -63t44.5 -24v1zM65 616
q0 35 25.5 60.5t61.5 25.5t61.5 -25.5t25.5 -61.5t-25.5 -61.5t-61.5 -25.5t-61.5 25.5t-25.5 61.5v1zM295 616q0 35 25.5 60.5t61.5 25.5t61.5 -25.5t25.5 -61.5t-25.5 -61.5t-61.5 -25.5t-61.5 25.5t-25.5 61.5v1z" />
    <glyph glyph-name="aring" unicode="&#xe5;" horiz-adv-x="517" 
d="M315 0v49h-2q-19 -29 -51 -44t-74 -15q-87 0 -127 64t-40 170q0 149 48.5 211t127.5 62q44 0 73.5 -20t42.5 -56l2 1v66h174v-488h-174zM267 156q32 -1 40 25.5t8 57.5v1.5v1.5q0 35 -8 62t-38 27q-33 0 -45 -25.5t-13 -55.5v-4v-4q0 -39 11.5 -63t44.5 -24v1zM175 616
q0 42 30 72t73 30t73 -30t30 -73t-30 -73t-73 -30t-73 30t-30 73v1zM247 616q0 -14 9 -23t22 -9t22 9t9 22t-9 22t-22 9t-22 -9t-9 -22v1z" />
    <glyph glyph-name="ae" unicode="&#xe6;" horiz-adv-x="744" 
d="M77 325v141q28 12 67 21.5t85 9.5q53 0 90 -16t56 -51q23 33 61.5 50t87.5 17q12 0 25 -1.5t26 -4.5q52 -13 95 -58t43 -139q0 -19 -0.5 -34.5t-2.5 -31.5q0 -2 -0.5 -4.5t-0.5 -5.5l-237 1q0 -47 22.5 -66.5t55.5 -19.5q29 0 60.5 12t65.5 31v-149q-30 -17 -67 -27
t-82 -10q-55 0 -94 21t-56 49q-24 -27 -65 -48.5t-98 -21.5q-103 0 -143 52.5t-40 118.5q0 85 46.5 123.5t125.5 38.5q32 0 59 -8.5t46 -19.5q0 30 -24 53t-70 23q-41 0 -74 -14t-63 -33v1zM287 158q0 27 -12 39t-38 12q-23 0 -35.5 -12.5t-12.5 -35.5q0 -26 11 -42t37 -16
q29 0 39.5 16t10.5 38v1zM472 303h95q0 28 -10 45t-34 17q-27 0 -37.5 -16t-13.5 -47v1z" />
    <glyph glyph-name="ccedilla" unicode="&#xe7;" horiz-adv-x="363" 
d="M94 -143l44 133l141 -37l-100 -135zM339 175v-160q-11 -6 -21.5 -9.5t-21.5 -5.5q-18 -5 -36 -7.5t-37 -2.5q-97 0 -142.5 60t-56.5 133q-3 15 -4 30t-1 30q0 123 64 188.5t147 65.5q26 0 52.5 -5.5t56.5 -25.5v-148q-8 6 -17 10.5t-18 6.5q-6 1 -12 1.5t-12 0.5
q-37 0 -59 -23t-22 -73q0 -51 21.5 -71.5t50.5 -20.5q23 0 40.5 7.5t27.5 17.5v1z" />
    <glyph glyph-name="egrave" unicode="&#xe8;" horiz-adv-x="466" 
d="M412 177v-150q-31 -17 -76 -27t-95 -10q-121 0 -168 75.5t-47 187.5q0 121 62.5 182.5t153.5 61.5h11.5t11.5 -1q69 -5 126.5 -49t57.5 -153q0 -19 -0.5 -34.5t-2.5 -31.5q0 -2 -0.5 -4.5t-0.5 -5.5l-239 1q0 -47 22 -66.5t51 -19.5q17 0 33.5 3t33.5 9q16 6 32.5 14
t33.5 17v1zM206 303h95q0 28 -10 45t-34 17q-27 0 -37.5 -16t-13.5 -47v1zM193 530l-146 174h184l73 -174h-111z" />
    <glyph glyph-name="eacute" unicode="&#xe9;" horiz-adv-x="466" 
d="M404 177v-150q-31 -17 -76 -27t-95 -10q-121 0 -168 75.5t-47 187.5q0 121 62.5 182.5t153.5 61.5h11.5t11.5 -1q69 -5 126.5 -49t57.5 -153q0 -19 -0.5 -34.5t-2.5 -31.5q0 -2 -0.5 -4.5t-0.5 -5.5l-239 1q0 -47 22 -66.5t51 -19.5q17 0 33.5 3t33.5 9q16 6 32.5 14
t33.5 17v1zM198 303h95q0 28 -10 45t-34 17q-27 0 -37.5 -16t-13.5 -47v1zM158 530l73 174h184l-146 -174h-111z" />
    <glyph glyph-name="ecircumflex" unicode="&#xea;" horiz-adv-x="473" 
d="M411 177v-150q-31 -17 -76 -27t-95 -10q-121 0 -168 75.5t-47 187.5q0 121 62.5 182.5t153.5 61.5h11.5t11.5 -1q69 -5 126.5 -49t57.5 -153q0 -19 -0.5 -34.5t-2.5 -31.5q0 -2 -0.5 -4.5t-0.5 -5.5l-239 1q0 -47 22 -66.5t51 -19.5q17 0 33.5 3t33.5 9q16 6 32.5 14
t33.5 17v1zM205 303h95q0 28 -10 45t-34 17q-27 0 -37.5 -16t-13.5 -47v1zM44 530l114 174h164l102 -174h-143l-47 89l-47 -89h-143z" />
    <glyph glyph-name="edieresis" unicode="&#xeb;" horiz-adv-x="482" 
d="M416 177v-150q-31 -17 -76 -27t-95 -10q-121 0 -168 75.5t-47 187.5q0 121 62.5 182.5t153.5 61.5h11.5t11.5 -1q69 -5 126.5 -49t57.5 -153q0 -19 -0.5 -34.5t-2.5 -31.5q0 -2 -0.5 -4.5t-0.5 -5.5l-239 1q0 -47 22 -66.5t51 -19.5q17 0 33.5 3t33.5 9q16 6 32.5 14
t33.5 17v1zM210 303h95q0 28 -10 45t-34 17q-27 0 -37.5 -16t-13.5 -47v1zM37 616q0 35 25.5 60.5t61.5 25.5t61.5 -25.5t25.5 -61.5t-25.5 -61.5t-61.5 -25.5t-61.5 25.5t-25.5 61.5v1zM267 616q0 35 25.5 60.5t61.5 25.5t61.5 -25.5t25.5 -61.5t-25.5 -61.5t-61.5 -25.5
t-61.5 25.5t-25.5 61.5v1z" />
    <glyph glyph-name="igrave" unicode="&#xec;" horiz-adv-x="316" 
d="M111 0v488h174v-488h-174zM156 530l-146 174h184l73 -174h-111z" />
    <glyph glyph-name="iacute" unicode="&#xed;" horiz-adv-x="315" 
d="M30 0v488h174v-488h-174zM48 530l73 174h184l-146 -174h-111z" />
    <glyph glyph-name="icircumflex" unicode="&#xee;" horiz-adv-x="407" 
d="M116 0v488h174v-488h-174zM13 530l114 174h164l102 -174h-143l-47 89l-47 -89h-143z" />
    <glyph glyph-name="idieresis" unicode="&#xef;" horiz-adv-x="443" 
d="M134 0v488h174v-488h-174zM19 616q1 35 26.5 60.5t60.5 25.5q36 0 61.5 -25.5t25.5 -61.5t-25.5 -61.5t-61.5 -25.5q-35 0 -60.5 25.5t-25.5 61.5zM249 616q0 35 25.5 60.5t61.5 25.5t61.5 -25.5t25.5 -61.5t-25.5 -61.5t-61.5 -25.5t-61.5 25.5t-25.5 61.5v1z" />
    <glyph glyph-name="eth" unicode="&#xf0;" horiz-adv-x="522" 
d="M123 526l-64 42l97 48q-20 16 -41.5 31t-43.5 28l134 49q20 -9 39 -20.5t38 -25.5l82 42l64 -42l-92 -45q65 -65 109 -153t52 -180q0 -8 0.5 -16.5t0.5 -16.5q0 -119 -55.5 -198t-181.5 -79q-115 0 -176 67t-61 186v5.5v5.5q3 82 52.5 149.5t152.5 67.5q18 0 34 -4.5
t26 -13.5l2 3q-16 30 -37 58.5t-46 53.5zM204 244q0 -50 15 -76.5t42 -26.5q28 0 42.5 26.5t14.5 75.5q0 58 -15 80t-43 22q-25 0 -40 -26t-16 -76v1z" />
    <glyph glyph-name="ntilde" unicode="&#xf1;" horiz-adv-x="497" 
d="M32 0v488h174v-50h2q23 29 53.5 44t70.5 15q59 0 95.5 -33.5t36.5 -101.5v-362h-174v283q0 31 -9.5 46.5t-32.5 15.5q-22 0 -32 -15.5t-10 -47.5v-282h-174zM334 700h84v-9v-8q0 -56 -13.5 -103t-73.5 -47q-27 0 -46.5 8.5t-34.5 19.5q-10 6 -18.5 12t-16.5 10
q-5 2 -10 3.5t-10 1.5q-15 0 -21 -15t-6 -35v-1.5v-0.5v-1.5v-1.5l-90 1v23.5t1 25.5q3 43 20.5 79t71.5 36q25 0 44 -8t34 -17q13 -7 23.5 -14t21.5 -9q3 -1 5.5 -1.5t5.5 -0.5q18 0 23 12.5t6 27.5v5.5v5.5v1z" />
    <glyph glyph-name="ograve" unicode="&#xf2;" horiz-adv-x="515" 
d="M498 244q0 -100 -53.5 -177t-183.5 -77t-183.5 77t-53.5 176t53.5 176.5t183.5 77.5t183.5 -77.5t53.5 -176.5v1zM318 244q0 55 -15 78t-42 23t-42 -23t-15 -79t15 -79t42 -23t42 23t15 79v1zM219 530l-146 174h184l73 -174h-111z" />
    <glyph glyph-name="oacute" unicode="&#xf3;" horiz-adv-x="515" 
d="M491 244q0 -100 -53.5 -177t-183.5 -77t-183.5 77t-53.5 176t53.5 176.5t183.5 77.5t183.5 -77.5t53.5 -176.5v1zM311 244q0 55 -15 78t-42 23t-42 -23t-15 -79t15 -79t42 -23t42 23t15 79v1zM185 530l73 174h184l-146 -174h-111z" />
    <glyph glyph-name="ocircumflex" unicode="&#xf4;" horiz-adv-x="521" 
d="M497 244q0 -100 -53.5 -177t-183.5 -77t-183.5 77t-53.5 176t53.5 176.5t183.5 77.5t183.5 -77.5t53.5 -176.5v1zM317 244q0 55 -15 78t-42 23t-42 -23t-15 -79t15 -79t42 -23t42 23t15 79v1zM70 530l114 174h164l102 -174h-143l-47 89l-47 -89h-143z" />
    <glyph glyph-name="otilde" unicode="&#xf5;" horiz-adv-x="525" 
d="M499 244q0 -100 -53.5 -177t-183.5 -77t-183.5 77t-53.5 176t53.5 176.5t183.5 77.5t183.5 -77.5t53.5 -176.5v1zM319 244q0 55 -15 78t-42 23t-42 -23t-15 -79t15 -79t42 -23t42 23t15 79v1zM348 700h84v-9v-8q0 -56 -13.5 -103t-73.5 -47q-27 0 -46.5 8.5t-34.5 19.5
q-10 6 -18.5 12t-16.5 10q-5 2 -10 3.5t-10 1.5q-15 0 -21 -15t-6 -35v-1.5v-0.5v-1.5v-1.5l-90 1v23.5t1 25.5q3 43 20.5 79t71.5 36q25 0 44 -8t34 -17q13 -7 23.5 -14t21.5 -9q3 -1 5.5 -1.5t5.5 -0.5q18 0 23 12.5t6 27.5v5.5v5.5v1z" />
    <glyph glyph-name="odieresis" unicode="&#xf6;" horiz-adv-x="530" 
d="M502 244q0 -100 -53.5 -177t-183.5 -77t-183.5 77t-53.5 176t53.5 176.5t183.5 77.5t183.5 -77.5t53.5 -176.5v1zM322 244q0 55 -15 78t-42 23t-42 -23t-15 -79t15 -79t42 -23t42 23t15 79v1zM63 616q0 35 25.5 60.5t61.5 25.5t61.5 -25.5t25.5 -61.5t-25.5 -61.5
t-61.5 -25.5t-61.5 25.5t-25.5 61.5v1zM293 616q0 35 25.5 60.5t61.5 25.5t61.5 -25.5t25.5 -61.5t-25.5 -61.5t-61.5 -25.5t-61.5 25.5t-25.5 61.5v1z" />
    <glyph glyph-name="divide" unicode="&#xf7;" horiz-adv-x="526" 
d="M10 313h506v-120h-506v120zM168 460q0 19 7.5 36.5t20.5 30.5t30 20.5t37 7.5q19 0 36.5 -7.5t30.5 -20.5t20.5 -30.5t7.5 -36.5q0 -20 -7.5 -37t-20.5 -30t-30.5 -20.5t-36.5 -7.5q-20 0 -37 7.5t-30 20.5t-20.5 30t-7.5 37zM168 46q0 19 7.5 36.5t20.5 30.5t30 20.5
t37 7.5q19 0 36.5 -7.5t30.5 -20.5t20.5 -30.5t7.5 -36.5q0 -20 -7.5 -37t-20.5 -30t-30.5 -20.5t-36.5 -7.5q-20 0 -37 7.5t-30 20.5t-20.5 30t-7.5 37z" />
    <glyph glyph-name="oslash" unicode="&#xf8;" horiz-adv-x="532" 
d="M37 28l41 47q-25 34 -37 77.5t-12 90.5q0 99 53.5 176.5t183.5 77.5q45 0 80 -10t62 -30l38 46l51 -39l-43 -51q26 -35 37.5 -79t11.5 -91q0 -99 -53.5 -176t-183.5 -77q-44 0 -79.5 9.5t-61.5 28.5l-37 -43zM342 282l-123 -144q10 -9 21.5 -13t25.5 -4q35 0 57 29.5
t22 92.5q0 11 -0.5 20t-2.5 18v1zM189 204l126 146q-10 7 -22.5 11t-26.5 4q-35 0 -57 -29.5t-22 -92.5q0 -11 0.5 -21t1.5 -19v1z" />
    <glyph glyph-name="ugrave" unicode="&#xf9;" horiz-adv-x="486" 
d="M463 488v-488h-174v50h-2q-23 -31 -53 -45.5t-71 -14.5q-59 0 -95.5 33.5t-36.5 100.5v364h174v-283q0 -32 10 -48t32 -16q23 0 32.5 16t9.5 47v284h174zM205 530l-146 174h184l73 -174h-111z" />
    <glyph glyph-name="uacute" unicode="&#xfa;" horiz-adv-x="486" 
d="M454 488v-488h-174v50h-2q-23 -31 -53 -45.5t-71 -14.5q-59 0 -95.5 33.5t-36.5 100.5v364h174v-283q0 -32 10 -48t32 -16q23 0 32.5 16t9.5 47v284h174zM169 530l73 174h184l-146 -174h-111z" />
    <glyph glyph-name="ucircumflex" unicode="&#xfb;" horiz-adv-x="493" 
d="M462 488v-488h-174v50h-2q-23 -31 -53 -45.5t-71 -14.5q-59 0 -95.5 33.5t-36.5 100.5v364h174v-283q0 -32 10 -48t32 -16q23 0 32.5 16t9.5 47v284h174zM56 530l114 174h164l102 -174h-143l-47 89l-47 -89h-143z" />
    <glyph glyph-name="udieresis" unicode="&#xfc;" horiz-adv-x="501" 
d="M466 488v-488h-174v50h-2q-23 -31 -53 -45.5t-71 -14.5q-59 0 -95.5 33.5t-36.5 100.5v364h174v-283q0 -32 10 -48t32 -16q23 0 32.5 16t9.5 47v284h174zM48 616q0 35 25.5 60.5t61.5 25.5t61.5 -25.5t25.5 -61.5t-25.5 -61.5t-61.5 -25.5t-61.5 25.5t-25.5 61.5v1z
M278 616q0 35 25.5 60.5t61.5 25.5t61.5 -25.5t25.5 -61.5t-25.5 -61.5t-61.5 -25.5t-61.5 25.5t-25.5 61.5v1z" />
    <glyph glyph-name="yacute" unicode="&#xfd;" horiz-adv-x="485" 
d="M149 32l-136 456h177l53 -236h2l52 236h175l-210 -649h-177zM247 704h184l-146 -174h-111z" />
    <glyph glyph-name="thorn" unicode="&#xfe;" horiz-adv-x="509" 
d="M37 -161v873h174v-283h2q18 31 49.5 49.5t74.5 18.5q86 0 125.5 -71.5t39.5 -187.5q0 -111 -33 -161.5t-73 -66.5q-17 -6 -33 -8t-30 -2q-41 0 -69 14.5t-51 45.5l-2 1v-222h-174zM312 240q0 51 -13 71t-36 20q-33 0 -42.5 -25t-9.5 -57q0 -41 11 -65.5t42 -24.5
q22 0 35 20.5t13 59.5v1z" />
    <glyph glyph-name="ydieresis" unicode="&#xff;" horiz-adv-x="497" 
d="M94 -161l64 193l-136 456h177l53 -236h2l52 236h175l-210 -649h-177zM50 616q0 35 25.5 60.5t61.5 25.5t61.5 -25.5t25.5 -61.5t-25.5 -61.5t-61.5 -25.5t-61.5 25.5t-25.5 61.5v1zM280 616q0 35 25.5 60.5t61.5 25.5t61.5 -25.5t25.5 -61.5t-25.5 -61.5t-61.5 -25.5
t-61.5 25.5t-25.5 61.5v1z" />
    <glyph glyph-name="Aogonek" unicode="&#x104;" horiz-adv-x="617" 
d="M22 0l139 712h294l139 -712h-198l-18 120h-140l-18 -120h-198zM354 280l-45 294h-2l-45 -294h92zM490 0h69q-24 -32 -31.5 -49.5t-7.5 -29.5q0 -13 9.5 -21t25.5 -8q9 0 18.5 3.5t20.5 8.5v-70q-9 -4 -19.5 -7t-20.5 -4q-10 -2 -19.5 -2.5t-17.5 -0.5q-37 0 -62 19.5
t-25 54.5q0 19 12.5 46t47.5 60z" />
    <glyph glyph-name="aogonek" unicode="&#x105;" horiz-adv-x="535" 
d="M324 0v49h-2q-19 -29 -51 -44t-74 -15q-87 0 -127 64t-40 170q0 149 48.5 211t127.5 62q44 0 73.5 -20t42.5 -56l2 1v66h174v-488h-174zM276 156q32 -1 40 25.5t8 57.5v1.5v1.5q0 35 -8 62t-38 27q-33 0 -45 -25.5t-13 -55.5v-4v-4q0 -39 11.5 -63t44.5 -24v1zM394 0h69
q-24 -32 -31.5 -49.5t-7.5 -29.5q0 -13 9.5 -21t25.5 -8q9 0 18.5 3.5t20.5 8.5v-70q-9 -4 -19.5 -7t-20.5 -4q-10 -2 -19.5 -2.5t-17.5 -0.5q-37 0 -62 19.5t-25 54.5q0 19 12.5 46t47.5 60z" />
    <glyph glyph-name="Cacute" unicode="&#x106;" horiz-adv-x="478" 
d="M443 205v-194q-3 -2 -7.5 -3.5t-9.5 -3.5q-21 -5 -52.5 -10t-65.5 -6h-4.5h-4.5q-142 0 -208.5 94.5t-66.5 254.5q0 171 72 278.5t212 107.5q29 0 63.5 -7t71.5 -21v-182q-10 6 -20.5 12t-20.5 10q-11 4 -21.5 6t-20.5 2q-64 0 -99 -48.5t-35 -152.5q0 -85 27.5 -130
t79.5 -45q17 0 30.5 2.5t26.5 6.5q12 5 25 12t28 16v1zM148 754l73 174h184l-146 -174h-111z" />
    <glyph glyph-name="cacute" unicode="&#x107;" horiz-adv-x="380" 
d="M344 175v-160q-11 -6 -21.5 -9.5t-21.5 -5.5q-18 -5 -36 -7.5t-37 -2.5q-97 0 -142.5 60t-56.5 133q-3 15 -4 30t-1 30q0 123 64 188.5t147 65.5q26 0 52.5 -5.5t56.5 -25.5v-148q-8 6 -17 10.5t-18 6.5q-6 1 -12 1.5t-12 0.5q-37 0 -59 -23t-22 -73q0 -51 21.5 -71.5
t50.5 -20.5q23 0 40.5 7.5t27.5 17.5v1zM98 530l73 174h184l-146 -174h-111z" />
    <glyph glyph-name="Ccaron" unicode="&#x10c;" horiz-adv-x="478" 
d="M443 205v-194q-3 -2 -7.5 -3.5t-9.5 -3.5q-21 -5 -52.5 -10t-65.5 -6h-4.5h-4.5q-142 0 -208.5 94.5t-66.5 254.5q0 171 72 278.5t212 107.5q29 0 63.5 -7t71.5 -21v-182q-10 6 -20.5 12t-20.5 10q-11 4 -21.5 6t-20.5 2q-64 0 -99 -48.5t-35 -152.5q0 -85 27.5 -130
t79.5 -45q17 0 30.5 2.5t26.5 6.5q12 5 25 12t28 16v1zM146 754l-102 174h143l47 -86l47 86h143l-114 -174h-164z" />
    <glyph glyph-name="ccaron" unicode="&#x10d;" horiz-adv-x="380" 
d="M344 175v-160q-11 -6 -21.5 -9.5t-21.5 -5.5q-18 -5 -36 -7.5t-37 -2.5q-97 0 -142.5 60t-56.5 133q-3 15 -4 30t-1 30q0 123 64 188.5t147 65.5q26 0 52.5 -5.5t56.5 -25.5v-148q-8 6 -17 10.5t-18 6.5q-6 1 -12 1.5t-12 0.5q-37 0 -59 -23t-22 -73q0 -51 21.5 -71.5
t50.5 -20.5q23 0 40.5 7.5t27.5 17.5v1zM96 530l-102 174h143l47 -86l47 86h143l-114 -174h-164z" />
    <glyph glyph-name="dcroat" unicode="&#x111;" horiz-adv-x="532" 
d="M203 240q0 -43 13.5 -64t37.5 -21q29 0 39.5 25t10.5 69q0 32 -11 57t-40 25q-25 0 -37.5 -20t-12.5 -72v1zM478 545v-545h-174v74h-2q-13 -40 -42 -62t-79 -22q-82 0 -117.5 54t-45.5 119q-3 19 -4 38t-1 37q0 116 40 187.5t125 71.5q44 0 75 -18.5t49 -50.5l2 1v116
h-166v104h166v63h174v-63h43v-104h-43z" />
    <glyph glyph-name="Eogonek" unicode="&#x118;" horiz-adv-x="425" 
d="M36 0v712h361v-166h-171v-102h150v-166h-150v-112h173v-166h-363zM295 0h69q-24 -32 -31.5 -49.5t-7.5 -29.5q0 -13 9.5 -21t25.5 -8q9 0 18.5 3.5t20.5 8.5v-70q-9 -4 -19.5 -7t-20.5 -4q-10 -2 -19.5 -2.5t-17.5 -0.5q-37 0 -62 19.5t-25 54.5q0 19 12.5 46t47.5 60z
" />
    <glyph glyph-name="eogonek" unicode="&#x119;" horiz-adv-x="478" 
d="M414 177v-150q-31 -17 -76 -27t-95 -10q-121 0 -168 75.5t-47 187.5q0 121 62.5 182.5t153.5 61.5h11.5t11.5 -1q69 -5 126.5 -49t57.5 -153q0 -19 -0.5 -34.5t-2.5 -31.5q0 -2 -0.5 -4.5t-0.5 -5.5l-239 1q0 -47 22 -66.5t51 -19.5q17 0 33.5 3t33.5 9q16 6 32.5 14
t33.5 17v1zM208 303h95q0 28 -10 45t-34 17q-27 0 -37.5 -16t-13.5 -47v1zM347 62h69q-24 -32 -31.5 -49.5t-7.5 -29.5q0 -13 9.5 -21t25.5 -8q9 0 18.5 3.5t20.5 8.5v-70q-9 -4 -19.5 -7t-20.5 -4q-10 -2 -19.5 -2.5t-17.5 -0.5q-37 0 -62 19.5t-25 54.5q0 19 12.5 46
t47.5 60z" />
    <glyph glyph-name="Gbreve" unicode="&#x11e;" horiz-adv-x="587" 
d="M315 277v144h245v-186q0 -111 -63 -179t-189 -68q-147 0 -214.5 102t-67.5 266q0 154 80.5 260.5t231.5 106.5q53 0 91.5 -8.5t64.5 -21.5v-194q-18 19 -50.5 34t-67.5 16h-3.5h-2.5q-73 0 -110.5 -54.5t-37.5 -149.5q0 -82 22 -130t74 -48q36 0 52 17t16 45v48h-71z
M133 924h90q4 -32 23 -46.5t47 -14.5q29 0 47.5 14.5t22.5 45.5l90 1q-2 -90 -43 -128t-91 -45q-6 -1 -12.5 -1.5t-13.5 -0.5t-13.5 0.5t-12.5 1.5q-50 7 -90.5 45t-42.5 127z" />
    <glyph glyph-name="gbreve" unicode="&#x11f;" horiz-adv-x="526" 
d="M317 488h174v-505q0 -92 -61 -149.5t-164 -57.5q-17 0 -35 1.5t-36 4.5q-24 4 -47.5 11t-43.5 16v141q40 -17 67 -23.5t48 -6.5q48 0 68 18.5t26 40.5q2 9 3 17t1 15v55h-2q-13 -29 -43 -47.5t-80 -18.5q-97 0 -131.5 73.5t-34.5 174.5v14t1 14q4 83 41.5 152t130.5 69
q45 0 78.5 -24.5t37.5 -56.5l2 1v71zM216 245q0 -31 9 -55.5t41 -24.5h3.5h3.5q17 3 30.5 19t13.5 60q0 34 -8 60t-41 27q-27 1 -37.5 -18t-13.5 -42q0 -7 -0.5 -14t-0.5 -13v1zM99 700h90q4 -32 23 -46.5t47 -14.5q29 0 47.5 14.5t22.5 45.5l90 1q-2 -90 -43 -128t-91 -45
q-6 -1 -12.5 -1.5t-13.5 -0.5t-13.5 0.5t-12.5 1.5q-50 7 -90.5 45t-42.5 127z" />
    <glyph glyph-name="Idotaccent" unicode="&#x130;" horiz-adv-x="263" 
d="M36 0v712h190v-712h-190zM44 840q0 35 25.5 60.5t61.5 25.5t61.5 -25.5t25.5 -61.5t-25.5 -61.5t-61.5 -25.5t-61.5 25.5t-25.5 61.5v1z" />
    <glyph glyph-name="dotlessi" unicode="&#x131;" horiz-adv-x="250" 
d="M37 0v488h174v-488h-174z" />
    <glyph glyph-name="Lslash" unicode="&#x141;" horiz-adv-x="467" 
d="M93 0v267l-71 -42v126l71 42v319h190v-206l87 51v-126l-87 -51v-206h166v-174h-356z" />
    <glyph glyph-name="lslash" unicode="&#x142;" horiz-adv-x="331" 
d="M77 0v256l-58 -37v115l58 37v341h174v-230l62 40v-115l-62 -40v-367h-174z" />
    <glyph glyph-name="Nacute" unicode="&#x143;" horiz-adv-x="605" 
d="M36 0v712h217l140 -457h2v457h174v-712h-217l-140 456h-2v-456h-174zM217 754l73 174h184l-146 -174h-111z" />
    <glyph glyph-name="nacute" unicode="&#x144;" horiz-adv-x="505" 
d="M37 0v488h174v-50h2q23 29 53.5 44t70.5 15q59 0 95.5 -33.5t36.5 -101.5v-362h-174v283q0 31 -9.5 46.5t-32.5 15.5q-22 0 -32 -15.5t-10 -47.5v-282h-174zM167 530l73 174h184l-146 -174h-111z" />
    <glyph glyph-name="Ohungarumlaut" unicode="&#x150;" horiz-adv-x="656" 
d="M628 356q1 -155 -69 -261.5t-231 -106.5q-160 0 -230.5 106.5t-69.5 260.5q1 146 68 257t232 111t232 -111t68 -257v1zM224 361q0 -98 29 -141t75 -43q47 0 75.5 43t28.5 140t-28.5 140t-75.5 43q-46 0 -75 -43t-29 -140v1zM70 754l73 174h184l-146 -174h-111zM330 754
l73 174h184l-146 -174h-111z" />
    <glyph glyph-name="ohungarumlaut" unicode="&#x151;" horiz-adv-x="528" 
d="M501 244q0 -100 -53.5 -177t-183.5 -77t-183.5 77t-53.5 176t53.5 176.5t183.5 77.5t183.5 -77.5t53.5 -176.5v1zM321 244q0 55 -15 78t-42 23t-42 -23t-15 -79t15 -79t42 -23t42 23t15 79v1zM6 530l73 174h184l-146 -174h-111zM266 530l73 174h184l-146 -174h-111z" />
    <glyph glyph-name="OE" unicode="&#x152;" horiz-adv-x="799" 
d="M763 712v-166h-164v-102h143v-166h-143v-112h166v-166h-318q-9 0 -20.5 -2t-27.5 -4q-15 -2 -35 -4t-46 -2q-160 0 -224.5 113.5t-64.5 259.5q0 168 81.5 265t223.5 97q23 0 38.5 -2t25.5 -4q7 -1 13 -2.5t11 -2.5q4 0 7 -0.5t7 -0.5zM409 187v333q-10 2 -23 4.5t-28 2.5
q-67 0 -95 -40.5t-35 -89.5q-2 -12 -2.5 -24t-0.5 -23q0 -82 29.5 -129.5t90.5 -47.5h9.5t8.5 1q13 1 25 4t21 8v1z" />
    <glyph glyph-name="oe" unicode="&#x153;" horiz-adv-x="762" 
d="M31 239q0 103 52.5 180.5t173.5 77.5q59 0 91.5 -19.5t51.5 -48.5q23 35 60.5 51.5t89.5 16.5q13 0 28 -2t30 -7q46 -15 84.5 -60t38.5 -134q0 -19 -0.5 -34.5t-2.5 -31.5q0 -2 -0.5 -4.5t-0.5 -5.5l-237 1q0 -47 22.5 -66.5t55.5 -19.5q29 0 60.5 12t65.5 31v-149
q-17 -10 -37.5 -17.5t-41.5 -11.5q-16 -4 -32.5 -6t-30.5 -2q-69 0 -101 19t-50 47q-25 -35 -65.5 -50.5t-85.5 -15.5q-101 0 -160 63.5t-59 184.5v1zM205 243q0 -50 15.5 -76t44.5 -26q32 0 46.5 26t14.5 75q0 55 -15 79t-46 24q-28 0 -43.5 -26.5t-16.5 -76.5v1zM490 303
h95q0 28 -10 45t-34 17q-27 0 -37.5 -16t-13.5 -47v1z" />
    <glyph glyph-name="Sacute" unicode="&#x15a;" horiz-adv-x="504" 
d="M43 27v203q6 -6 13.5 -11.5t16.5 -10.5q23 -16 54 -28.5t63 -12.5q38 0 58 12.5t20 37.5q0 20 -15.5 33t-39.5 24q-15 7 -31.5 14t-33.5 16q-45 24 -82.5 67.5t-37.5 132.5q0 10 1 19.5t2 19.5q12 67 70 123.5t183 56.5q7 0 14.5 -0.5t14.5 -0.5q35 -3 67.5 -11.5
t51.5 -17.5q3 -2 6 -3.5t5 -3.5v-191q-18 13 -36.5 23t-37.5 16q-13 5 -25.5 7t-24.5 2q-32 0 -56.5 -13t-24.5 -39q0 -22 17.5 -35t43.5 -23q14 -6 29 -11.5t30 -12.5q45 -21 82.5 -62t37.5 -129q0 -11 -1 -22.5t-3 -23.5q-13 -69 -73.5 -126.5t-189.5 -57.5q-57 0 -98 11
t-70 27v1zM167 754l73 174h184l-146 -174h-111z" />
    <glyph glyph-name="sacute" unicode="&#x15b;" horiz-adv-x="405" 
d="M40 19v147q7 -6 15 -11t15 -9q21 -12 41.5 -18.5t36.5 -6.5h1.5h1.5q16 1 29 10t13 27q0 13 -11 20.5t-28 14.5q-10 4 -21 8t-22 10q-31 14 -56.5 40.5t-25.5 81.5q0 71 54 117.5t139 46.5q34 0 60 -6t51 -16q5 -2 10.5 -4t11.5 -4v-138q-19 14 -44 25t-54 11
q-19 0 -31 -11.5t-12 -26.5q0 -13 11.5 -20.5t28.5 -14.5q9 -3 20 -7t22 -9q31 -13 56.5 -38.5t25.5 -78.5q0 -76 -53 -122.5t-145 -46.5q-14 0 -29 1t-31 3q-21 3 -41.5 8.5t-38.5 15.5v1zM118 530l73 174h184l-146 -174h-111z" />
    <glyph glyph-name="Scedilla" unicode="&#x15e;" horiz-adv-x="504" 
d="M43 27v203q6 -6 13.5 -11.5t16.5 -10.5q23 -16 54 -28.5t63 -12.5q38 0 58 12.5t20 37.5q0 20 -15.5 33t-39.5 24q-15 7 -31.5 14t-33.5 16q-45 24 -82.5 67.5t-37.5 132.5q0 10 1 19.5t2 19.5q12 67 70 123.5t183 56.5q7 0 14.5 -0.5t14.5 -0.5q35 -3 67.5 -11.5
t51.5 -17.5q3 -2 6 -3.5t5 -3.5v-191q-18 13 -36.5 23t-37.5 16q-13 5 -25.5 7t-24.5 2q-32 0 -56.5 -13t-24.5 -39q0 -22 17.5 -35t43.5 -23q14 -6 29 -11.5t30 -12.5q45 -21 82.5 -62t37.5 -129q0 -11 -1 -22.5t-3 -23.5q-13 -69 -73.5 -126.5t-189.5 -57.5q-57 0 -98 11
t-70 27v1zM161 -143l44 133l141 -37l-100 -135z" />
    <glyph glyph-name="scedilla" unicode="&#x15f;" horiz-adv-x="405" 
d="M40 19v147q7 -6 15 -11t15 -9q21 -12 41.5 -18.5t36.5 -6.5h1.5h1.5q16 1 29 10t13 27q0 13 -11 20.5t-28 14.5q-10 4 -21 8t-22 10q-31 14 -56.5 40.5t-25.5 81.5q0 71 54 117.5t139 46.5q34 0 60 -6t51 -16q5 -2 10.5 -4t11.5 -4v-138q-19 14 -44 25t-54 11
q-19 0 -31 -11.5t-12 -26.5q0 -13 11.5 -20.5t28.5 -14.5q9 -3 20 -7t22 -9q31 -13 56.5 -38.5t25.5 -78.5q0 -76 -53 -122.5t-145 -46.5q-14 0 -29 1t-31 3q-21 3 -41.5 8.5t-38.5 15.5v1zM111 -143l44 133l141 -37l-100 -135z" />
    <glyph glyph-name="Scaron" unicode="&#x160;" horiz-adv-x="501" 
d="M42 27v203q6 -6 13.5 -11.5t16.5 -10.5q23 -16 54 -28.5t63 -12.5q38 0 58 12.5t20 37.5q0 20 -15.5 33t-39.5 24q-15 7 -31.5 14t-33.5 16q-45 24 -82.5 67.5t-37.5 132.5q0 10 1 19.5t2 19.5q12 67 70 123.5t183 56.5q7 0 14.5 -0.5t14.5 -0.5q35 -3 67.5 -11.5
t51.5 -17.5q3 -2 6 -3.5t5 -3.5v-191q-18 13 -36.5 23t-37.5 16q-13 5 -25.5 7t-24.5 2q-32 0 -56.5 -13t-24.5 -39q0 -22 17.5 -35t43.5 -23q14 -6 29 -11.5t30 -12.5q45 -21 82.5 -62t37.5 -129q0 -11 -1 -22.5t-3 -23.5q-13 -69 -73.5 -126.5t-189.5 -57.5q-57 0 -98 11
t-70 27v1zM164 754l-102 174h143l47 -86l47 86h143l-114 -174h-164z" />
    <glyph glyph-name="scaron" unicode="&#x161;" horiz-adv-x="432" 
d="M54 19v147q7 -6 15 -11t15 -9q21 -12 41.5 -18.5t36.5 -6.5h1.5h1.5q16 1 29 10t13 27q0 13 -11 20.5t-28 14.5q-10 4 -21 8t-22 10q-31 14 -56.5 40.5t-25.5 81.5q0 71 54 117.5t139 46.5q34 0 60 -6t51 -16q5 -2 10.5 -4t11.5 -4v-138q-19 14 -44 25t-54 11
q-19 0 -31 -11.5t-12 -26.5q0 -13 11.5 -20.5t28.5 -14.5q9 -3 20 -7t22 -9q31 -13 56.5 -38.5t25.5 -78.5q0 -76 -53 -122.5t-145 -46.5q-14 0 -29 1t-31 3q-21 3 -41.5 8.5t-38.5 15.5v1zM130 530l-102 174h143l47 -86l47 86h143l-114 -174h-164z" />
    <glyph glyph-name="Uhungarumlaut" unicode="&#x170;" horiz-adv-x="563" 
d="M33 236v476h190v-476q0 -31 12.5 -50t45.5 -19t45.5 19t12.5 49v477h190v-476q0 -142 -73.5 -195t-174.5 -53t-174.5 53t-73.5 194v1zM23 754l73 174h184l-146 -174h-111zM283 754l73 174h184l-146 -174h-111z" />
    <glyph glyph-name="uhungarumlaut" unicode="&#x171;" horiz-adv-x="505" 
d="M468 488v-488h-174v50h-2q-23 -31 -53 -45.5t-71 -14.5q-59 0 -95.5 33.5t-36.5 100.5v364h174v-283q0 -32 10 -48t32 -16q23 0 32.5 16t9.5 47v284h174zM-6 530l73 174h184l-146 -174h-111zM254 530l73 174h184l-146 -174h-111z" />
    <glyph glyph-name="Ydieresis" unicode="&#x178;" horiz-adv-x="548" 
d="M179 0v280l-163 432h189l68 -258h2l68 258h189l-163 -432v-280h-190zM72 840q0 35 25.5 60.5t61.5 25.5t61.5 -25.5t25.5 -61.5t-25.5 -61.5t-61.5 -25.5t-61.5 25.5t-25.5 61.5v1zM302 840q0 35 25.5 60.5t61.5 25.5t61.5 -25.5t25.5 -61.5t-25.5 -61.5t-61.5 -25.5
t-61.5 25.5t-25.5 61.5v1z" />
    <glyph glyph-name="Zacute" unicode="&#x179;" horiz-adv-x="502" 
d="M32 0l181 546h-159v166h416l-181 -546h162v-166h-419zM165 754l73 174h184l-146 -174h-111z" />
    <glyph glyph-name="zacute" unicode="&#x17a;" horiz-adv-x="424" 
d="M31 0l135 344h-111v144h335l-130 -336h124v-152h-353zM125 530l73 174h184l-146 -174h-111z" />
    <glyph glyph-name="Zdotaccent" unicode="&#x17b;" horiz-adv-x="502" 
d="M32 0l181 546h-159v166h416l-181 -546h162v-166h-419zM164 840q0 35 25.5 60.5t61.5 25.5t61.5 -25.5t25.5 -61.5t-25.5 -61.5t-61.5 -25.5t-61.5 25.5t-25.5 61.5v1z" />
    <glyph glyph-name="zdotaccent" unicode="&#x17c;" horiz-adv-x="424" 
d="M31 0l135 344h-111v144h335l-130 -336h124v-152h-353zM124 616q0 35 25.5 60.5t61.5 25.5t61.5 -25.5t25.5 -61.5t-25.5 -61.5t-61.5 -25.5t-61.5 25.5t-25.5 61.5v1z" />
    <glyph glyph-name="Zcaron" unicode="&#x17d;" horiz-adv-x="490" 
d="M207 546h-159v166h416l-181 -546h162v-166h-419zM55 928h143l47 -86l47 86h143l-114 -174h-164z" />
    <glyph glyph-name="zcaron" unicode="&#x17e;" horiz-adv-x="436" 
d="M167 344h-111v144h335l-130 -336h124v-152h-353zM28 704h143l47 -86l47 86h143l-114 -174h-164z" />
    <glyph glyph-name="florin" unicode="&#x192;" horiz-adv-x="497" 
d="M84 297l16 108h76l28 175q11 68 44 105.5t104 37.5q39 0 73.5 -9.5t59.5 -24.5l-18 -133q-9 2 -19.5 4.5t-21.5 2.5q-20 0 -32.5 -13t-17.5 -41l-16 -104h80l-15 -108h-81l-45 -310q-17 -121 -56 -166t-116 -45q-19 0 -43 4.5t-49 16.5q-6 2 -11.5 5t-10.5 6l21 149
q13 -6 24.5 -10.5t21.5 -4.5q17 0 24.5 12t9.5 26l46 317h-76z" />
    <glyph glyph-name="circumflex" unicode="&#x2c6;" horiz-adv-x="424" 
d="M21 530l114 174h164l102 -174h-143l-47 89l-47 -89h-143z" />
    <glyph glyph-name="caron" unicode="&#x2c7;" horiz-adv-x="422" 
d="M124 530l-102 174h143l47 -86l47 86h143l-114 -174h-164z" />
    <glyph glyph-name="uni02C9" unicode="&#x2c9;" horiz-adv-x="393" 
d="M37 563v108h318v-108h-318z" />
    <glyph glyph-name="breve" unicode="&#x2d8;" horiz-adv-x="372" 
d="M26 700h90q4 -32 23 -46.5t47 -14.5q29 0 47.5 14.5t22.5 45.5l90 1q-2 -90 -43 -128t-91 -45q-6 -1 -12.5 -1.5t-13.5 -0.5t-13.5 0.5t-12.5 1.5q-50 7 -90.5 45t-42.5 127z" />
    <glyph glyph-name="dotaccent" unicode="&#x2d9;" horiz-adv-x="226" 
d="M26 616q0 35 25.5 60.5t61.5 25.5t61.5 -25.5t25.5 -61.5t-25.5 -61.5t-61.5 -25.5t-61.5 25.5t-25.5 61.5v1z" />
    <glyph glyph-name="ring" unicode="&#x2da;" horiz-adv-x="258" 
d="M26 616q0 42 30 72t73 30t73 -30t30 -73t-30 -73t-73 -30t-73 30t-30 73v1zM98 616q0 -14 9 -23t22 -9t22 9t9 22t-9 22t-22 9t-22 -9t-9 -22v1z" />
    <glyph glyph-name="ogonek" unicode="&#x2db;" horiz-adv-x="213" 
d="M85 0h69q-24 -32 -31.5 -49.5t-7.5 -29.5q0 -13 9.5 -21t25.5 -8q9 0 18.5 3.5t20.5 8.5v-70q-9 -4 -19.5 -7t-20.5 -4q-10 -2 -19.5 -2.5t-17.5 -0.5q-37 0 -62 19.5t-25 54.5q0 19 12.5 46t47.5 60z" />
    <glyph glyph-name="tilde" unicode="&#x2dc;" horiz-adv-x="406" 
d="M289 700h84v-9v-8q0 -56 -13.5 -103t-73.5 -47q-27 0 -46.5 8.5t-34.5 19.5q-10 6 -18.5 12t-16.5 10q-5 2 -10 3.5t-10 1.5q-15 0 -21 -15t-6 -35v-1.5v-0.5v-1.5v-1.5l-90 1q1 11 1 23.5t1 25.5q3 43 20.5 79t70.5 36q25 0 44 -8t34 -17q13 -7 23.5 -14t21.5 -9
q3 -1 5.5 -1.5t5.5 -0.5q18 0 23 12.5t6 27.5v5.5v5.5v1z" />
    <glyph glyph-name="hungarumlaut" unicode="&#x2dd;" horiz-adv-x="567" 
d="M29 530l73 174h184l-146 -174h-111zM289 530l73 174h184l-146 -174h-111z" />
    <glyph glyph-name="uni0400" unicode="&#x400;" horiz-adv-x="419" 
d="M33 0v712h361v-166h-171v-102h150v-166h-150v-112h173v-166h-363zM189 730l-146 174h184l73 -174h-111z" />
    <glyph glyph-name="uni0401" unicode="&#x401;" horiz-adv-x="468" 
d="M53 0v712h360v-166h-170v-102h149v-166h-149v-112h172v-166h-362zM32 816q1 35 26.5 60.5t60.5 25.5q36 0 61.5 -25.5t25.5 -61.5t-25.5 -61.5t-61.5 -25.5q-35 0 -60.5 25.5t-25.5 61.5zM262 816q0 35 25.5 60.5t61.5 25.5t61.5 -25.5t25.5 -61.5t-25.5 -61.5
t-61.5 -25.5t-61.5 25.5t-25.5 61.5v1z" />
    <glyph glyph-name="uni0402" unicode="&#x402;" horiz-adv-x="605" 
d="M401 34v249q0 31 -9.5 46.5t-32.5 15.5q-22 0 -32 -15l-2 -4v-326h-190v546h-122v166h434v-166h-122v-101q21 24 48 37q30 15 70 15q59 0 95.5 -33.5t36.5 -101.5l-4 -510h-230v182h60z" />
    <glyph glyph-name="uni0403" unicode="&#x403;" horiz-adv-x="411" 
d="M28 0v712h375v-166h-185v-546h-190zM130 730l73 174h184l-146 -174h-111z" />
    <glyph glyph-name="uni0404" unicode="&#x404;" horiz-adv-x="480" 
d="M233 270q7 -35 21 -58q28 -45 80 -45q17 0 30.5 2.5t26.5 6.5q12 5 25 12t28 16v-193q-3 -2 -7.5 -3.5t-9.5 -3.5q-21 -5 -52.5 -10t-65.5 -6h-9q-142 0 -208.5 94.5t-66.5 254.5q0 171 72 278.5t212 107.5q29 0 63.5 -7t71.5 -21v-182q-10 6 -20.5 12t-20.5 10
q-11 4 -21.5 6t-20.5 2q-64 0 -99 -48q-13 -18 -21 -43h155v-182h-163z" />
    <glyph glyph-name="uni0405" unicode="&#x405;" horiz-adv-x="506" 
d="M44 27v203q6 -6 13.5 -11.5t16.5 -10.5q23 -16 54 -28.5t63 -12.5q38 0 58 12.5t20 37.5q0 20 -15.5 33t-39.5 24q-15 7 -31.5 14t-33.5 16q-45 24 -82.5 67.5t-37.5 132.5q0 10 1 19.5t2 19.5q12 67 70 123.5t183 56.5q7 0 14.5 -0.5t14.5 -0.5q35 -3 67.5 -11.5
t51.5 -17.5q3 -2 6 -3.5t5 -3.5v-191q-18 13 -36.5 23t-37.5 16q-13 5 -25.5 7t-24.5 2q-32 0 -56.5 -13t-24.5 -39q0 -22 17.5 -35t43.5 -23q14 -6 29 -11.5t30 -12.5q45 -21 82.5 -62t37.5 -129q0 -11 -1 -22.5t-3 -23.5q-13 -69 -73.5 -126.5t-189.5 -57.5q-57 0 -98 11
t-70 27v1z" />
    <glyph glyph-name="uni0406" unicode="&#x406;" horiz-adv-x="265" 
d="M37 0v712h190v-712h-190z" />
    <glyph glyph-name="uni0407" unicode="&#x407;" horiz-adv-x="444" 
d="M127 0v712h190v-712h-190zM20 816q1 35 26.5 60.5t60.5 25.5q36 0 61.5 -25.5t25.5 -61.5t-25.5 -61.5t-61.5 -25.5q-35 0 -60.5 25.5t-25.5 61.5zM250 816q0 35 25.5 60.5t61.5 25.5t61.5 -25.5t25.5 -61.5t-25.5 -61.5t-61.5 -25.5t-61.5 25.5t-25.5 61.5v1z" />
    <glyph glyph-name="uni0408" unicode="&#x408;" horiz-adv-x="361" 
d="M17 9v178q6 -5 12.5 -8t13.5 -5q10 -4 19 -5.5t15 -1.5q32 0 45.5 18.5t13.5 43.5v483h190v-500q0 -89 -36.5 -156.5t-155.5 -67.5q-10 0 -20 1t-21 2q-21 3 -40.5 7.5t-35.5 9.5v1z" />
    <glyph glyph-name="uni0409" unicode="&#x409;" horiz-adv-x="980" 
d="M635 166h63q34 -1 50 18t16 47q0 35 -18.5 49.5t-58.5 14.5l-52 1v-130zM338 561v-349q0 -89 -36.5 -156.5t-155.5 -67.5q-10 0 -20 1t-21 2q-21 3 -40.5 7.5t-35.5 9.5v179q6 -5 12.5 -8t13.5 -5q10 -4 19 -5.5t15 -1.5q32 0 45.5 18.5t13.5 43.5v483h487v-278h133
q118 -4 155 -77t37 -151v-9q-3 -74 -62 -135.5t-185 -61.5h-272v561h-103z" />
    <glyph glyph-name="uni040A" unicode="&#x40a;" horiz-adv-x="881" 
d="M537 166h63q34 -1 50 18t16 47q0 35 -18.5 49.5t-58.5 14.5l-52 1v-130zM537 434h133q118 -4 155 -77t37 -151v-9q-3 -74 -62 -135.5t-185 -61.5h-272v284h-116v-284h-190v712h190v-268h116v268h194v-278z" />
    <glyph glyph-name="uni040B" unicode="&#x40b;" horiz-adv-x="615" 
d="M146 0v546h-122v166h434v-166h-122v-101q21 24 48 37q30 15 70 15q59 0 95.5 -33.5t36.5 -101.5v-362h-174v283q0 31 -9.5 46.5t-32.5 15.5q-22 0 -32 -15l-2 -4v-326h-190z" />
    <glyph glyph-name="uni040C" unicode="&#x40c;" horiz-adv-x="569" 
d="M27 0v712h190v-325h2l128 325h195l-142 -330l148 -382h-206l-123 356h-2v-356h-190zM202 730l73 174h184l-146 -174h-111z" />
    <glyph glyph-name="uni040D" unicode="&#x40d;" horiz-adv-x="591" 
d="M30 712h174v-456h2l140 456h217v-712h-174v457h-2l-140 -457h-217v712zM271 730l-146 174h184l73 -174h-111z" />
    <glyph glyph-name="uni040E" unicode="&#x40e;" horiz-adv-x="545" 
d="M120 900h90q4 -32 23 -46.5t47 -14.5q29 0 47.5 14.5t22.5 45.5l90 1q-2 -90 -43 -128t-91 -45q-6 -1 -12.5 -1.5t-13.5 -0.5t-13.5 0.5t-12.5 1.5q-50 7 -90.5 45t-42.5 127zM81 0l100 280l-163 432h188l68 -258h3l68 258h189l-264 -712h-189z" />
    <glyph glyph-name="uni040F" unicode="&#x40f;" horiz-adv-x="562" 
d="M212 0h-180v712h190v-547h116v547h190v-712h-154v-108h-162v108z" />
    <glyph glyph-name="uni0410" unicode="&#x410;" horiz-adv-x="618" 
d="M23 0l139 712h294l139 -712h-198l-18 120h-140l-18 -120h-198zM355 280l-45 294h-2l-45 -294h92z" />
    <glyph glyph-name="uni0411" unicode="&#x411;" horiz-adv-x="579" 
d="M227 552v-118h133q118 -4 155 -77t37 -151v-9q-3 -74 -62 -135.5t-185 -61.5h-268v712h466v-160h-276zM227 166h63q34 -1 50 18t16 47q0 35 -18.5 49.5t-58.5 14.5l-52 1v-130z" />
    <glyph glyph-name="uni0412" unicode="&#x412;" horiz-adv-x="579" 
d="M37 0v712h275q116 -1 168.5 -58.5t52.5 -131.5q0 -55 -28 -92.5t-77 -53.5v-1q1 -1 2.5 -1.5t3.5 -0.5q44 -13 81 -51t37 -116v-4v-5q-3 -74 -62 -135.5t-185 -61.5h-268zM227 296v-130h63q34 -1 50 18t16 47q0 35 -18.5 49.5t-58.5 14.5zM227 552v-118h53
q35 -1 51.5 15.5t16.5 41.5q0 34 -22 47t-66 13z" />
    <glyph glyph-name="uni0413" unicode="&#x413;" horiz-adv-x="424" 
d="M37 0v712h375v-166h-185v-546h-190z" />
    <glyph glyph-name="uni0414" unicode="&#x414;" horiz-adv-x="744" 
d="M57 168l26 2q69 163 78 542h465v-544h88v-343h-188v175h-310v-175h-189v343h30zM432 168v393h-103q-19 -297 -59 -393h162z" />
    <glyph glyph-name="uni0415" unicode="&#x415;" horiz-adv-x="427" 
d="M37 0v712h361v-166h-171v-102h150v-166h-150v-112h173v-166h-363z" />
    <glyph glyph-name="uni0416" unicode="&#x416;" horiz-adv-x="918" 
d="M554 356v-356h-190v356h-2l-123 -356h-206l148 382l-142 330h195l128 -325h2v325h190v-325h2l127 325h196l-142 -330l148 -382h-206l-123 356h-2z" />
    <glyph glyph-name="uni0417" unicode="&#x417;" horiz-adv-x="451" 
d="M33 28v171q2 -3 4.5 -4.5t5.5 -3.5q16 -11 39.5 -20.5t54.5 -9.5q37 0 64.5 18.5t27.5 52.5t-25 48t-54 18q-7 0 -13.5 0.5t-12.5 0.5q-1 120 6 114q63 13 75.5 31t12.5 47q0 24 -16.5 41t-49.5 17q-32 0 -51 0.5t-63 -9.5v140q32 16 78.5 29.5t97.5 13.5
q77 0 135.5 -46.5t58.5 -142.5q0 -52 -21 -95t-76 -74q64 -31 89 -71t25 -93q0 -87 -63 -150t-168 -63q-6 0 -12 0.5t-12 0.5q-38 3 -74 14t-63 24v1z" />
    <glyph glyph-name="uni0418" unicode="&#x418;" horiz-adv-x="608" 
d="M37 712h174v-456h2l140 456h217v-712h-174v457h-2l-140 -457h-217v712z" />
    <glyph glyph-name="uni0419" unicode="&#x419;" horiz-adv-x="597" 
d="M32 712h174v-456h2l140 456h217v-712h-174v457h-2l-140 -457h-217v712zM139 900h89q5 -32 23.5 -46.5t47.5 -14.5q28 0 47 14.5t22 45.5l90 1q-2 -90 -43 -128t-90 -45q-6 -1 -13 -1.5t-13 -0.5q-8 0 -14 0.5t-12 1.5q-51 7 -91.5 45t-42.5 127v1z" />
    <glyph glyph-name="uni041A" unicode="&#x41a;" horiz-adv-x="589" 
d="M37 0v712h190v-325h2l128 325h195l-142 -330l148 -382h-206l-123 356h-2v-356h-190z" />
    <glyph glyph-name="uni041B" unicode="&#x41b;" horiz-adv-x="657" 
d="M105 186q13 18 13 43l15 483h487v-712h-194v561h-103l-15 -349q0 -89 -36 -156.5t-156 -67.5q-9 0 -19 1t-22 2q-6 3 -25 8q-3 0 -5 1l-20 167q68 2 80 19z" />
    <glyph glyph-name="uni041C" unicode="&#x41c;" horiz-adv-x="756" 
d="M37 0v712h269l71 -454h2l71 454h269v-712h-174v568h-2l-107 -568h-126l-98 546h1h-2v-546h-174z" />
    <glyph glyph-name="uni041D" unicode="&#x41d;" horiz-adv-x="571" 
d="M37 0v712h190v-268h116v268h190v-712h-190v284h-116v-284h-190z" />
    <glyph glyph-name="uni041E" unicode="&#x41e;" horiz-adv-x="656" 
d="M224 360q0 -97 29 -140t75 -43q47 0 75.5 43t28.5 140t-28.5 140t-75.5 43q-46 0 -75 -43t-29 -140zM628 356q1 -155 -69 -261.5t-231 -106.5q-160 0 -230.5 106.5t-69.5 260.5q1 146 68 257t232 111t232 -111t68 -257v1z" />
    <glyph glyph-name="uni041F" unicode="&#x41f;" horiz-adv-x="571" 
d="M37 0v712h496v-712h-190v547h-116v-547h-190z" />
    <glyph glyph-name="uni0420" unicode="&#x420;" horiz-adv-x="555" 
d="M37 0v712h248q119 -1 188.5 -64t69.5 -178q0 -112 -74 -176t-188 -64l-54 1v-231h-190zM227 552v-161h23q38 -1 64.5 17t26.5 61q0 48 -28 65t-66 17z" />
    <glyph glyph-name="uni0421" unicode="&#x421;" horiz-adv-x="480" 
d="M444 205v-194q-3 -2 -7.5 -3.5t-9.5 -3.5q-21 -5 -52.5 -10t-65.5 -6h-4.5h-4.5q-142 0 -208.5 94.5t-66.5 254.5q0 171 72 278.5t212 107.5q29 0 63.5 -7t71.5 -21v-182q-10 6 -20.5 12t-20.5 10q-11 4 -21.5 6t-20.5 2q-64 0 -99 -48.5t-35 -152.5q0 -85 27.5 -130
t79.5 -45q17 0 30.5 2.5t26.5 6.5q12 5 25 12t28 16v1z" />
    <glyph glyph-name="uni0422" unicode="&#x422;" horiz-adv-x="476" 
d="M143 0v546h-122v166h434v-166h-122v-546h-190z" />
    <glyph glyph-name="uni0423" unicode="&#x423;" horiz-adv-x="552" 
d="M88 0l100 280l-163 432h188l68 -258h3l68 258h189l-264 -712h-189z" />
    <glyph glyph-name="uni0424" unicode="&#x424;" horiz-adv-x="858" 
d="M333 131l-52 -1q-114 0 -188 64t-74 176q0 115 69 178t176 64h69v100h192v-100h69q107 -1 176 -64t69 -178q0 -112 -74 -176t-188 -64l-52 1v-131h-192v131zM525 452v-161h21q38 -1 64.5 17t26.5 61q0 48 -28 65t-66 17zM333 291v161l-18 -1q-38 0 -66 -17t-28 -65
q0 -43 26.5 -61t64.5 -17h21z" />
    <glyph glyph-name="uni0425" unicode="&#x425;" horiz-adv-x="596" 
d="M30 0l160 376l-148 336h202l56 -193h2l64 193h193l-152 -336l158 -376h-199l-68 194h-2l-70 -194h-196z" />
    <glyph glyph-name="uni0426" unicode="&#x426;" horiz-adv-x="654" 
d="M465 0h-437v712h190v-547h116v547h190v-557h102v-263h-161v108z" />
    <glyph glyph-name="uni0427" unicode="&#x427;" horiz-adv-x="548" 
d="M14 395v317h190v-248q-8 -80 116 -70v318h190v-712h-190v284h-116q-167 7 -190 111z" />
    <glyph glyph-name="uni0428" unicode="&#x428;" horiz-adv-x="880" 
d="M37 0v712h190v-547h116v547h194v-547h116v547h190v-712h-806z" />
    <glyph glyph-name="uni0429" unicode="&#x429;" horiz-adv-x="970" 
d="M744 0h-719v712h190v-547h116v547h194v-547h116v547h190v-544h109v-289h-196v121z" />
    <glyph glyph-name="uni042A" unicode="&#x42a;" horiz-adv-x="696" 
d="M355 166h63q35 -1 50.5 18t15.5 47q0 35 -18.5 49.5t-58.5 14.5l-52 1v-130zM355 712v-278h133q118 -4 155.5 -77t37.5 -151v-9q-4 -74 -62.5 -135.5t-184.5 -61.5h-269v552h-140v160h330z" />
    <glyph glyph-name="uni042B" unicode="&#x42b;" horiz-adv-x="797" 
d="M227 481l54 1q114 0 188 -64t74 -176q0 -115 -69.5 -178t-188.5 -64h-248v712h190v-231zM760 0h-190v712h190v-712zM227 160l20 1q38 0 66 17t28 65q0 43 -26.5 61t-64.5 17h-23v-161z" />
    <glyph glyph-name="uni042C" unicode="&#x42c;" horiz-adv-x="555" 
d="M227 481l54 1q114 0 188 -64t74 -176q0 -115 -69.5 -178t-188.5 -64h-248v712h190v-231zM227 160l20 1q38 0 66 17t28 65q0 43 -26.5 61t-64.5 17h-23v-161z" />
    <glyph glyph-name="uni042D" unicode="&#x42d;" horiz-adv-x="480" 
d="M84 270v182h155q-8 25 -21 43q-35 48 -99 48q-10 0 -20.5 -2t-21.5 -6q-10 -4 -20.5 -10t-20.5 -12v182q37 14 71.5 21t63.5 7q140 0 212 -107.5t72 -278.5q0 -160 -66.5 -254.5t-208.5 -94.5h-9q-34 1 -65.5 6t-52.5 10q-5 2 -9.5 3.5t-7.5 3.5v193q15 -9 28 -16t25 -12
q13 -4 26.5 -6.5t30.5 -2.5q52 0 79 45q15 23 21 58h-162z" />
    <glyph glyph-name="uni042E" unicode="&#x42e;" horiz-adv-x="909" 
d="M475 360q0 -97 28 -140q29 -43 76 -43q46 0 75 43t29 140t-29 140t-75 43q-47 0 -76 -43q-28 -43 -28 -140zM282 284h-55v-284h-190v712h190v-268h59q14 92 61 168q67 111 232 111q164 0 231 -111t68 -257v1q1 -155 -69 -261.5t-230 -106.5q-161 0 -231 107
q-54 81 -66 189z" />
    <glyph glyph-name="uni042F" unicode="&#x42f;" horiz-adv-x="600" 
d="M562 0h-190v252h-50l-98 -252h-197l128 301q-55 23 -79 71.5t-24 110.5q0 86 51 157t188 72h271v-712zM372 552l-30 -1q-37 0 -63 -17t-26 -58t26.5 -61t57.5 -20q10 0 18.5 1t16.5 3v153z" />
    <glyph glyph-name="uni0430" unicode="&#x430;" horiz-adv-x="535" 
d="M324 0v49h-2q-19 -29 -51 -44t-74 -15q-87 0 -127 64t-40 170q0 149 48.5 211t127.5 62q44 0 73.5 -20t42.5 -56l2 1v66h174v-488h-174zM276 156q32 -1 40 25.5t8 57.5v1.5v1.5q0 35 -8 62t-38 27q-33 0 -45 -25.5t-13 -55.5v-4v-4q0 -39 11.5 -63t44.5 -24v1z" />
    <glyph glyph-name="uni0431" unicode="&#x431;" horiz-adv-x="525" 
d="M317 244q0 55 -15 78t-42 23t-42 -23t-15 -79t15 -79t42 -23t42 23t15 79v1zM118 404q59 93 142 93q130 0 184 -78q53 -77 53 -175q0 -100 -53 -177q-54 -77 -184 -77t-183.5 77t-53.5 176q0 61 12 252.5t239 152.5q8 0 26 5t29 91l14 12q126 -14 126 -20v-21l-13 -61
q-18 -120 -202 -106h-41q-95 16 -95 -144z" />
    <glyph glyph-name="uni0432" unicode="&#x432;" horiz-adv-x="505" 
d="M37 0v488h211h11h38v-3q79 -7 117 -37q48 -39 48 -91q0 -37 -26 -62.5t-70 -36.5v-1q1 -1 2.5 -1.5t2.5 -0.5q40 -8 73.5 -34t33.5 -80v-6q-3 -51 -56 -93q-41 -33 -125 -40v-2h-260zM215 284h6q33 0 48.5 7.5t15.5 18.5q0 30 -21 35l-6 2h-43v-63zM215 133h6
q33 0 48.5 7.5t15.5 18.5q0 40 -21 45l-6 2h-43v-73z" />
    <glyph glyph-name="uni0433" unicode="&#x433;" horiz-adv-x="356" 
d="M37 0v488h303v-141h-126v-347h-177z" />
    <glyph glyph-name="uni0434" unicode="&#x434;" horiz-adv-x="637" 
d="M54 132l24 1q65 95 73 355h374v-356h82v-253h-175v120h-230v-120h-176v253h28zM345 132v212h-40q-18 -168 -52 -212h92z" />
    <glyph glyph-name="uni0435" unicode="&#x435;" horiz-adv-x="478" 
d="M414 177v-150q-31 -17 -76 -27t-95 -10q-121 0 -168 75.5t-47 187.5q0 121 62.5 182.5t153.5 61.5h11.5t11.5 -1q69 -5 126.5 -49t57.5 -153q0 -19 -0.5 -34.5t-2.5 -31.5q0 -2 -0.5 -4.5t-0.5 -5.5l-239 1q0 -47 22 -66.5t51 -19.5q17 0 33.5 3t33.5 9q16 6 32.5 14
t33.5 17v1zM208 303h95q0 28 -10 45t-34 17q-27 0 -37.5 -16t-13.5 -47v1z" />
    <glyph glyph-name="uni0436" unicode="&#x436;" horiz-adv-x="789" 
d="M306 0v220h-2l-82 -220h-189l108 260l-96 228h184l75 -210h2v210h177v-210h2l76 210h184l-97 -228l108 -260h-189l-82 220h-2v-220h-177z" />
    <glyph glyph-name="uni0437" unicode="&#x437;" horiz-adv-x="380" 
d="M33 16v119q2 -3 3.5 -4t4.5 -2q13 -7 32.5 -14t44.5 -7q30 0 52.5 13t22.5 36q0 24 -20 34t-44 12q-6 0 -11.5 0.5t-10.5 0.5q0 84 6 79q51 9 61 21.5t10 32.5q0 17 -13.5 28.5t-39.5 11.5q-27 0 -42.5 1t-51.5 -6v97q26 11 64.5 20.5t80.5 9.5q62 0 110 -32.5t48 -98.5
q0 -37 -17 -67t-62 -51q52 -21 72.5 -49t20.5 -65q0 -61 -51.5 -104.5t-137.5 -43.5h-10h-10q-31 3 -60.5 10.5t-51.5 16.5v1z" />
    <glyph glyph-name="uni0438" unicode="&#x438;" horiz-adv-x="505" 
d="M468 488v-488h-174v223l-83 -223h-174v488h174v-223l83 223h174z" />
    <glyph glyph-name="uni0439" unicode="&#x439;" horiz-adv-x="496" 
d="M84 700h90q5 -32 23.5 -46.5t47.5 -14.5q28 0 46.5 14.5t22.5 45.5l90 1q-2 -90 -43 -128t-91 -45q-5 -1 -12 -1.5t-13 -0.5q-8 0 -14.5 0.5t-11.5 1.5q-51 7 -91.5 45t-42.5 127zM468 488v-488h-174v223l-83 -223h-174v488h174v-223l83 223h174z" />
    <glyph glyph-name="uni043A" unicode="&#x43a;" horiz-adv-x="515" 
d="M211 488v-210h2l75 210h184l-96 -228l108 -260h-189l-82 220h-2v-220h-174v488h174z" />
    <glyph glyph-name="uni043B" unicode="&#x43b;" horiz-adv-x="537" 
d="M324 0v347h-49q-6 -242 -41 -299q-37 -58 -144 -58q-9 0 -18.5 1t-18.5 2q-6 2 -24 5q-2 0 -4 1l7 115q36 1 47 12q39 75 44 362h377v-488h-1v-1h-174v1h-1z" />
    <glyph glyph-name="uni043C" unicode="&#x43c;" horiz-adv-x="722" 
d="M37 0v488h245l79 -308l79 308h245v-488h-173v347l-83 -348h-136l-83 348v-347h-173z" />
    <glyph glyph-name="uni043D" unicode="&#x43d;" horiz-adv-x="502" 
d="M290 0v168h-79v-168h-174v488h174v-175h79v175h174v-488h-174z" />
    <glyph glyph-name="uni043E" unicode="&#x43e;" horiz-adv-x="529" 
d="M321 244q0 55 -15 78t-42 23t-42 -23t-15 -79t15 -79t42 -23t42 23t15 79v1zM501 244q0 -100 -53 -177q-54 -77 -184 -77t-183.5 77t-53.5 176t53.5 176.5t183.5 77.5t184 -78q53 -77 53 -175z" />
    <glyph glyph-name="uni043F" unicode="&#x43f;" horiz-adv-x="499" 
d="M285 0v344h-70v-344h-178v488h424v-488h-176z" />
    <glyph glyph-name="uni0440" unicode="&#x440;" horiz-adv-x="518" 
d="M37 -161v649h174v-59h2q18 31 49.5 49.5t74.5 18.5q86 0 125.5 -71.5t39.5 -187.5q0 -111 -33 -161.5t-73 -66.5q-17 -6 -33 -8t-30 -2q-41 0 -69 14.5t-51 45.5l-2 1v-222h-174zM312 240q0 51 -14 71t-37 20q-30 0 -40 -25t-10 -57q0 -37 10 -63.5t41 -26.5
q28 0 39 20.5t11 59.5v1z" />
    <glyph glyph-name="uni0441" unicode="&#x441;" horiz-adv-x="380" 
d="M344 175v-160q-11 -6 -21.5 -9.5t-21.5 -5.5q-18 -5 -36 -7.5t-37 -2.5q-97 0 -142.5 60t-56.5 133q-3 15 -4 30t-1 30q0 123 64 188.5t147 65.5q26 0 52.5 -5.5t56.5 -25.5v-148q-8 6 -17 10.5t-18 6.5q-6 1 -12 1.5t-12 0.5q-37 0 -59 -23t-22 -73q0 -51 21.5 -71.5
t50.5 -20.5q23 0 40.5 7.5t27.5 17.5v1z" />
    <glyph glyph-name="uni0442" unicode="&#x442;" horiz-adv-x="445" 
d="M131 0v344h-109v144h401v-144h-120v-344h-172z" />
    <glyph glyph-name="uni0443" unicode="&#x443;" horiz-adv-x="496" 
d="M96 -161l64 193l-136 456h177l53 -236h2l52 236h175l-210 -649h-177z" />
    <glyph glyph-name="uni0444" unicode="&#x444;" horiz-adv-x="784" 
d="M303 58q-22 -30 -49 -43q-28 -15 -69 -15q-14 0 -30 2t-33 8q-40 16 -73 66.5t-33 161.5q0 116 39.5 187.5t125.5 71.5q43 0 75 -18q29 -18 47 -46v279h178v-279q18 28 48 46q31 18 74 18q86 0 125.5 -71.5t39.5 -187.5q0 -111 -33 -161.5t-73 -66.5q-17 -6 -33 -8
t-30 -2q-41 0 -69 15q-27 13 -49 43v-219h-178v219zM481 287v-81q3 -13 7 -22q11 -25 42 -25q22 0 35 20.5t13 59.5v1q0 51 -13 71t-36 20q-33 0 -42 -25q-4 -9 -6 -19zM303 206v81q-2 10 -6 19q-9 25 -42 25q-23 0 -36 -20t-13 -71v-1q0 -39 13 -59.5t35 -20.5q31 0 42 25
q4 9 7 22z" />
    <glyph glyph-name="uni0445" unicode="&#x445;" horiz-adv-x="520" 
d="M31 0l127 248l-119 240h178l47 -127l47 127h178l-126 -240l124 -248h-184l-48 139h-2l-47 -139h-175z" />
    <glyph glyph-name="uni0446" unicode="&#x446;" horiz-adv-x="564" 
d="M386 -1h-358v489h164v-344h93v344h163v-344h88v-220h-150v75z" />
    <glyph glyph-name="uni0447" unicode="&#x447;" horiz-adv-x="466" 
d="M273 0v147h-86q-150 4 -168 124v217h168v-140q-5 -52 53 -58l33 1v197h174v-488h-174z" />
    <glyph glyph-name="uni0448" unicode="&#x448;" horiz-adv-x="742" 
d="M36 0v488h175v-344h70v344h179v-344h70v344h175v-488h-669z" />
    <glyph glyph-name="uni0449" unicode="&#x449;" horiz-adv-x="774" 
d="M25 0v488h175v-344h70v344h179v-344h70v344h175v-341h47l-1 -224h-170v77h-545z" />
    <glyph glyph-name="uni044A" unicode="&#x44a;" horiz-adv-x="610" 
d="M361 331q96 0 164 -44t68 -121q0 -79 -64 -122.5t-164 -43.5h-219v344h-121v144h295v-158zM332 115q33 0 56 10.5t23 39.5q0 25 -22 36t-54 10h-15v-96h12z" />
    <glyph glyph-name="uni044B" unicode="&#x44b;" horiz-adv-x="712" 
d="M675 0h-173v488h173v-488zM252 331q96 0 164 -44t68 -121q0 -79 -64 -122.5t-164 -43.5h-219v488h174v-158zM223 106q33 0 56 10.5t23 39.5q0 25 -22 36t-54 10h-15v-96h12z" />
    <glyph glyph-name="uni044C" unicode="&#x44c;" horiz-adv-x="496" 
d="M252 331q96 0 164 -44t68 -121q0 -79 -64 -122.5t-164 -43.5h-219v488h174v-158zM223 106q33 0 56 10.5t23 39.5q0 25 -22 36t-54 10h-15v-96h12z" />
    <glyph glyph-name="uni044D" unicode="&#x44d;" horiz-adv-x="379" 
d="M71 216v60h100q-5 24 -18 38q-22 23 -59 23q-6 0 -12 -0.5t-12 -1.5q-9 -2 -18 -6.5t-17 -10.5v148q30 20 56.5 25.5t52.5 5.5q83 0 147 -65.5t64 -188.5q0 -15 -1 -30t-4 -30q-11 -73 -56.5 -133t-142.5 -60q-19 0 -37.5 2.5t-35.5 7.5q-11 2 -21.5 5.5t-21.5 9.5v159
q10 -10 27.5 -17.5t40.5 -7.5q29 0 50 20q16 16 20 47h-102z" />
    <glyph glyph-name="uni044E" unicode="&#x44e;" horiz-adv-x="776" 
d="M37 0v488h174v-184h66q12 63 48 115q53 78 183 78q131 0 184 -78q54 -77 54 -175q0 -100 -54 -177q-53 -77 -184 -77q-130 0 -183 77q-40 58 -50 128h-64v-195h-174zM565 244q0 55 -14.5 78t-42.5 23q-27 0 -41.5 -23t-14.5 -79t14.5 -79t41.5 -23q28 0 42.5 23t14.5 79
v1z" />
    <glyph glyph-name="uni044F" unicode="&#x44f;" horiz-adv-x="525" 
d="M312 0v173h-33l-79 -173h-172l102 206q-44 16 -63 49.5t-19 75.5q0 59 40 108q39 47 157 49h242v-488h-175zM224 302q18 -30 30 -30.5t37 -0.5h14q4 1 7 1v72h-67v-3h-1q-20 -12 -20 -39z" />
    <glyph glyph-name="uni0450" unicode="&#x450;" horiz-adv-x="465" 
d="M410 177v-150q-31 -17 -76 -27t-95 -10q-121 0 -168 75.5t-47 187.5q0 121 62.5 182.5t153.5 61.5h11.5t11.5 -1q69 -5 126.5 -49t57.5 -153q0 -19 -0.5 -34.5t-2.5 -31.5q0 -2 -0.5 -4.5t-0.5 -5.5l-239 1q0 -47 22 -66.5t51 -19.5q17 0 33.5 3t33.5 9q16 6 32.5 14
t33.5 17v1zM204 303h95q0 28 -10 45t-34 17q-27 0 -37.5 -16t-13.5 -47v1zM210 530l-146 174h184l73 -174h-111z" />
    <glyph glyph-name="uni0451" unicode="&#x451;" horiz-adv-x="483" 
d="M416 177v-150q-31 -17 -76 -27t-95 -10q-121 0 -168 75.5t-47 187.5q0 121 62.5 182.5t153.5 61.5h11.5t11.5 -1q69 -5 126.5 -49t57.5 -153q0 -19 -0.5 -34.5t-2.5 -31.5q0 -2 -0.5 -4.5t-0.5 -5.5l-239 1q0 -47 22 -66.5t51 -19.5q17 0 33.5 3t33.5 9q16 6 32.5 14
t33.5 17v1zM210 303h95q0 28 -10 45t-34 17q-27 0 -37.5 -16t-13.5 -47v1zM40 616q1 35 26.5 60.5t60.5 25.5q36 0 61.5 -25.5t25.5 -61.5t-25.5 -61.5t-61.5 -25.5q-35 0 -60.5 25.5t-25.5 61.5zM270 616q0 35 25.5 60.5t61.5 25.5t61.5 -25.5t25.5 -61.5t-25.5 -61.5
t-61.5 -25.5t-61.5 25.5t-25.5 61.5v1z" />
    <glyph glyph-name="uni0452" unicode="&#x452;" horiz-adv-x="490" 
d="M289 34v249q0 31 -9.5 46.5t-32.5 15.5q-22 0 -32 -15.5t-10 -47.5v-282h-174v712h174v-65h166v-101h-166v-108h2q23 29 53.5 44t70.5 15q59 0 95.5 -33.5t36.5 -101.5v-362h-4v-108h-209v142h39z" />
    <glyph glyph-name="uni0453" unicode="&#x453;" horiz-adv-x="354" 
d="M27 0v488h296v-113h-146v-375h-150zM89 530l73 174h184l-146 -174h-111z" />
    <glyph glyph-name="uni0454" unicode="&#x454;" horiz-adv-x="380" 
d="M206 216q4 -31 20 -47q21 -20 50 -20q23 0 40.5 7.5t27.5 17.5v-159q-11 -6 -21.5 -9.5t-21.5 -5.5q-18 -5 -36 -7.5t-37 -2.5q-97 0 -142.5 60t-56.5 133q-3 15 -4 30t-1 30q0 123 64 188.5t147 65.5q26 0 52.5 -5.5t56.5 -25.5v-148q-8 6 -17 10.5t-18 6.5
q-6 1 -12 1.5t-12 0.5q-37 0 -59 -23q-13 -14 -18 -38h100v-60h-102z" />
    <glyph glyph-name="uni0455" unicode="&#x455;" horiz-adv-x="405" 
d="M40 19v147q7 -6 15 -11t15 -9q21 -12 41.5 -18.5t36.5 -6.5h1.5h1.5q16 1 29 10t13 27q0 13 -11 20.5t-28 14.5q-10 4 -21 8t-22 10q-31 14 -56.5 40.5t-25.5 81.5q0 71 54 117.5t139 46.5q34 0 60 -6t51 -16q5 -2 10.5 -4t11.5 -4v-138q-19 14 -44 25t-54 11
q-19 0 -31 -11.5t-12 -26.5q0 -13 11.5 -20.5t28.5 -14.5q9 -3 20 -7t22 -9q31 -13 56.5 -38.5t25.5 -78.5q0 -76 -53 -122.5t-145 -46.5q-14 0 -29 1t-31 3q-21 3 -41.5 8.5t-38.5 15.5v1z" />
    <glyph glyph-name="uni0456" unicode="&#x456;" horiz-adv-x="257" 
d="M41 0v488h174v-488h-174zM30 614q0 40 29 68.5t69 28.5q41 0 69.5 -28.5t28.5 -69.5q0 -40 -28.5 -69t-69.5 -29q-40 0 -69 29t-29 69v1z" />
    <glyph glyph-name="uni0457" unicode="&#x457;" horiz-adv-x="443" 
d="M134 0v488h174v-488h-174zM19 616q1 35 26.5 60.5t60.5 25.5q36 0 61.5 -25.5t25.5 -61.5t-25.5 -61.5t-61.5 -25.5q-35 0 -60.5 25.5t-25.5 61.5zM249 616q0 35 25.5 60.5t61.5 25.5t61.5 -25.5t25.5 -61.5t-25.5 -61.5t-61.5 -25.5t-61.5 25.5t-25.5 61.5v1z" />
    <glyph glyph-name="uni0458" unicode="&#x458;" horiz-adv-x="356" 
d="M14 -214v155q14 -8 28.5 -11.5t33.5 -3.5q41 0 52.5 18.5t11.5 43.5v500h174v-546q0 -95 -44.5 -136.5t-97.5 -50.5q-9 -2 -19 -2.5t-19 -0.5q-14 0 -28.5 3t-30.5 7q-16 5 -31 11t-29 13h-1zM129 614q0 40 29 68.5t69 28.5q41 0 69.5 -28.5t28.5 -69.5q0 -40 -28.5 -69
t-69.5 -29q-40 0 -69 29t-29 69v1z" />
    <glyph glyph-name="uni0459" unicode="&#x459;" horiz-adv-x="669" 
d="M439 121h32q17 -1 25.5 9.5t8.5 28.5q0 23 -9.5 30.5t-31.5 7.5l-25 1v-77zM247 376v-230q0 -60 -25 -107.5t-108 -47.5q-7 0 -14 0.5t-14 1.5q-14 2 -27.5 5t-28.5 8v139q18 -15 21.5 -17t7.5 -3q6 -2 10.5 -3t7.5 -1q15 0 22.5 10.5t7.5 26.5v330h332v-187h78
q82 -3 107 -54.5t25 -103.5v-7q-2 -51 -42 -94t-126 -43h-185v377h-49z" />
    <glyph glyph-name="uni045A" unicode="&#x45a;" horiz-adv-x="607" 
d="M377 122h32q17 -1 25.5 9.5t8.5 28.5q0 22 -9.5 30t-31.5 8h-25v-76zM377 301h77q83 -2 108 -53.5t25 -103.5v-7q-3 -51 -42.5 -94t-125.5 -43h-184v191h-59v-191h-139v488h139v-180h59v180h142v-187z" />
    <glyph glyph-name="uni045B" unicode="&#x45b;" horiz-adv-x="494" 
d="M211 546v-108h2q23 29 53.5 44t70.5 15q59 0 95.5 -33.5t36.5 -101.5v-362h-174v283q0 31 -9.5 46.5t-32.5 15.5q-22 0 -32 -15.5t-10 -47.5v-282h-174v712h174v-65h166v-101h-166z" />
    <glyph glyph-name="uni045C" unicode="&#x45c;" horiz-adv-x="494" 
d="M198 488v-210h2l75 210h184l-96 -228l108 -260h-189l-82 220h-2v-220h-174v488h174zM162 530l73 174h184l-146 -174h-111z" />
    <glyph glyph-name="uni045D" unicode="&#x45d;" horiz-adv-x="505" 
d="M30 0v488h172v-275l105 275h173v-488h-173v255l-105 -255h-172zM236 530l-146 174h184l73 -174h-111z" />
    <glyph glyph-name="uni045E" unicode="&#x45e;" horiz-adv-x="491" 
d="M91 -161l64 193l-136 456h177l53 -236h2l52 236h175l-210 -649h-177zM89 700h90q4 -32 23 -46.5t47 -14.5q29 0 47.5 14.5t22.5 45.5l90 1q-2 -90 -43 -128t-91 -45q-6 -1 -12.5 -1.5t-13.5 -0.5t-13.5 0.5t-12.5 1.5q-50 7 -90.5 45t-42.5 127z" />
    <glyph glyph-name="uni045F" unicode="&#x45f;" horiz-adv-x="482" 
d="M175 0h-147v488h162v-375h100v375h162v-488h-123v-155h-154v155z" />
    <glyph glyph-name="uni0490" unicode="&#x490;" horiz-adv-x="421" 
d="M33 0v712h259v72h116v-238h-185v-546h-190z" />
    <glyph glyph-name="uni0491" unicode="&#x491;" horiz-adv-x="337" 
d="M27 0v488h204v85h93v-154h-1v-44h-146v-375h-150z" />
    <glyph glyph-name="endash" unicode="&#x2013;" horiz-adv-x="575" 
d="M37 211v144h500v-144h-500z" />
    <glyph glyph-name="emdash" unicode="&#x2014;" horiz-adv-x="1074" 
d="M37 211v144h1000v-144h-1000z" />
    <glyph glyph-name="quoteleft" unicode="&#x2018;" horiz-adv-x="258" 
d="M14 470l101 242h119l-53 -242h-167z" />
    <glyph glyph-name="quoteright" unicode="&#x2019;" horiz-adv-x="257" 
d="M24 470l53 242h167l-101 -242h-119z" />
    <glyph glyph-name="quotesinglbase" unicode="&#x201a;" horiz-adv-x="257" 
d="M77 155h167l-101 -242h-119z" />
    <glyph glyph-name="quotedblleft" unicode="&#x201c;" horiz-adv-x="496" 
d="M24 470l101 242h119l-53 -242h-167zM246 470l101 242h119l-53 -242h-167z" />
    <glyph glyph-name="quotedblright" unicode="&#x201d;" horiz-adv-x="496" 
d="M30 470l53 242h167l-101 -242h-119zM252 470l53 242h167l-101 -242h-119z" />
    <glyph glyph-name="quotedblbase" unicode="&#x201e;" horiz-adv-x="496" 
d="M30 -87l53 242h167l-101 -242h-119zM252 -87l53 242h167l-101 -242h-119z" />
    <glyph glyph-name="dagger" unicode="&#x2020;" horiz-adv-x="502" 
d="M10 398v143l164 -11l-12 194h178l-12 -194l164 11v-143l-164 11l10 -579h-174l10 579z" />
    <glyph glyph-name="daggerdbl" unicode="&#x2021;" horiz-adv-x="509" 
d="M13 46v143l165 -12l-17 100l17 130l-165 -12v143l165 -10l-12 196h176l-12 -196l165 10v-143l-165 12l17 -130l-17 -100l165 12v-143l-165 10l12 -226h-176l12 226z" />
    <glyph glyph-name="bullet" unicode="&#x2022;" horiz-adv-x="408" 
d="M26 356q0 73 52.5 125t125.5 52q74 0 126 -52t52 -126q0 -73 -52 -125.5t-126 -52.5q-73 0 -125.5 52.5t-52.5 125.5v1z" />
    <glyph glyph-name="ellipsis" unicode="&#x2026;" horiz-adv-x="924" 
d="M34 95q0 38 28 66t67 28t67 -28t28 -67t-28 -66.5t-67 -27.5t-67 27.5t-28 66.5v1zM367 95q0 38 28 66t67 28t67 -28t28 -67t-28 -66.5t-67 -27.5t-67 27.5t-28 66.5v1zM700 95q0 38 28 66t67 28t67 -28t28 -67t-28 -66.5t-67 -27.5t-67 27.5t-28 66.5v1z" />
    <glyph glyph-name="perthousand" unicode="&#x2030;" horiz-adv-x="1023" 
d="M553 -12q-67 0 -104.5 52t-37.5 151q0 86 32.5 145.5t109.5 59.5t109.5 -59.5t32.5 -145.5q0 -99 -37.5 -151t-104.5 -52zM553 102q18 -1 23 23t5 66q0 43 -5 67t-23 24t-23 -24t-5 -67q0 -42 5 -66t23 -24v1zM865 -12q-67 0 -104.5 52t-37.5 151q0 86 32.5 145.5
t109.5 59.5t109.5 -59.5t32.5 -145.5q0 -99 -37.5 -151t-104.5 -52zM865 102q18 -1 23 23t5 66q0 43 -5 67t-23 24t-23 -24t-5 -67q0 -42 5 -66t23 -24v1zM164 0l279 712h103l-278 -712h-104zM169 315q-67 -1 -104.5 51.5t-37.5 151.5q0 86 32.5 145.5t109.5 59.5
t109.5 -59.5t32.5 -145.5q0 -99 -37.5 -151.5t-104.5 -52.5v1zM169 429q18 -1 23 23t5 66q0 43 -5 67t-23 24t-23 -24t-5 -67q0 -42 5 -66t23 -24v1z" />
    <glyph glyph-name="guilsinglleft" unicode="&#x2039;" horiz-adv-x="180" 
d="M12 187v192l134 106v-149l-73 -53l73 -53v-149z" />
    <glyph glyph-name="guilsinglright" unicode="&#x203a;" horiz-adv-x="184" 
d="M171 379v-192l-134 -106v149l73 53l-73 53v149z" />
    <glyph glyph-name="uni2116" unicode="&#x2116;" horiz-adv-x="951" 
d="M37 0v712h217l140 -457h2v457h174v-712h-217l-140 456h-2v-456h-174zM601 571q0 71 43 111.5t126 40.5q94 0 128.5 -46.5t34.5 -106.5q0 -76 -46 -114t-120 -38q-83 0 -124.5 40.5t-41.5 111.5v1zM718 330q0 23 16 39t39 16t39 -16t16 -39t-16 -39t-39 -16t-39 16t-16 39
zM799 571q0 26 -9.5 38t-23.5 12q-13 0 -21.5 -14.5t-9.5 -36.5q0 -21 9.5 -35.5t22.5 -14.5q14 0 23 14.5t9 35.5v1z" />
    <glyph glyph-name="trademark" unicode="&#x2122;" horiz-adv-x="993" 
d="M142 300v322h-112v90h344v-90h-112v-322h-120zM848 300v270h-2l-89 -270h-88l-89 270h-2v-270h-108v412h154l89 -239l89 239h154v-412h-108z" />
    <glyph glyph-name="uni2215" unicode="&#x2215;" horiz-adv-x="506" 
d="M4 -21l388 754h110l-388 -754h-110z" />
    <glyph glyph-name="uni2219" unicode="&#x2219;" horiz-adv-x="262" 
d="M26 259q0 43 31 73.5t74 30.5q44 0 74.5 -30.5t30.5 -74.5q0 -43 -30.5 -74t-74.5 -31q-43 0 -74 31t-31 74v1z" />
    <glyph glyph-name="uniF001" unicode="&#xf001;" horiz-adv-x="606" 
d="M92 0v344h-67v144h65v70q0 79 33 122t120 43q31 0 56.5 -4t50.5 -12v-136q-9 4 -17.5 6t-16.5 2q-21 0 -35.5 -12.5t-14.5 -35.5v-43h69v-144h-69v-344h-174zM387 0v488h174v-488h-174zM376 614q0 40 29 68.5t69 28.5q41 0 69.5 -28.5t28.5 -69.5q0 -40 -28.5 -69
t-69.5 -29q-40 0 -69 29t-29 69v1z" />
    <glyph glyph-name="uniF002" unicode="&#xf002;" horiz-adv-x="597" 
d="M91 0v344h-67v144h65v70q0 79 33 122t120 43q31 0 56.5 -4t50.5 -12v-136q-9 4 -17.5 6t-16.5 2q-21 0 -35.5 -12.5t-14.5 -35.5v-43h69v-144h-69v-344h-174zM386 0v712h174v-712h-174z" />
    <glyph glyph-name="multiply.001" 
 />
    <glyph glyph-name="Yacute.001" 
 />
    <glyph glyph-name="degree.001" 
 />
    <glyph glyph-name="brokenbar.001" 
 />
    <glyph glyph-name="threequarters.001" 
 />
    <glyph glyph-name="periodcentered.001" 
 />
    <glyph glyph-name="onesuperior.001" 
 />
    <glyph glyph-name="threesuperior.001" 
 />
    <glyph glyph-name="quotesinglbase.001" 
 />
    <glyph glyph-name="yacute.001" 
 />
    <glyph glyph-name="twosuperior.001" 
 />
    <glyph glyph-name="divide.001" 
 />
    <glyph glyph-name="onequarter.001" 
 />
    </font>
</defs>
</svg>
